Loading...
Error

Скачать Балканский экспресс / Balkan Ekspres (Бранко Балетич) [1983, комедия, DVDRip] [VO] торрент без регистрации

 
Статистика раздачи
Размер:  1,37 GB   |    Скачан:  119 раз
Сидов:  1  [  0 KB/s  ]  
 
Автор Сообщение

Marsianka

[] 



Информация о фильме
Название: Балканский экспресс
Оригинальное название: Balkan Ekspres
Год выхода: 1983
Жанр: комедия
Режиссер: Бранко Балетич
В ролях: Драган Николич, Бора Тодорович, Таня Бошкович, Велимир (Бата) Живойнович, Оливера Маркович

О фильме:
Действие фильма происходит в Югославии, во время Второй мировой войны. Группа мошенников промышляет карманными кражами. С началом войны группа ненадолго распадается, спасая свои жизни. Стесненные обстоятельствами, бывшие мошенники вскоре опять собираются вместе. Чтобы выполнить опасное задание подпольщиков, они организуют оркестр для выступления в ресторане



Страна: Югославия
Студия: Inex - film
Продолжительность: 01:40:25
Перевод: Любительский, одноголосый закадровый

Файл
Кодек: XviD
Качество: DVDRip
Видео: 576x432, 1759 kbps, 25 fps
Звук: AC3, 2 ch, 192 kbps, 48.0 khz
General
Complete name : C:balkansky.ekspress.1983.XviD.DVDRip.avi
Format : AVI
Format/Info : Audio Video Interleave
File size : 1.37 GiB
Duration : 1h 40mn 25s
Overall bit rate : 1 958 Kbps
Writing application : VirtualDubMod 1.5.4.1 (build 2178/release)
Writing library : VirtualDubMod build 2178/release
Video #0
ID : 0
Format : MPEG-4 Visual
Format profile : Advanced Simple@L5
Format settings, BVOP : 1
Format settings, QPel : No
Format settings, GMC : No warppoints
Format settings, Matrix : Custom
Codec ID : XVID
Codec ID/Hint : XviD
Duration : 1h 40mn 25s
Bit rate : 1 759 Kbps
Width : 576 pixels
Height : 432 pixels
Display aspect ratio : 4:3
Frame rate : 25.000 fps
Color space : YUV
Chroma subsampling : 4:2:0
Bit depth : 8 bits
Scan type : Progressive
Compression mode : Lossy
Bits/(Pixel*Frame) : 0.283
Stream size : 1.23 GiB (90%)
Writing library : XviD 64
Audio #1
ID : 1
Format : AC-3
Format/Info : Audio Coding 3
Mode extension : CM (complete main)
Format settings, Endianness : Big
Codec ID : 2000
Duration : 1h 40mn 25s
Bit rate mode : Constant
Bit rate : 192 Kbps
Channel(s) : 2 channels
Channel positions : Front: L R
Sampling rate : 48.0 KHz
Bit depth : 16 bits
Compression mode : Lossy
Stream size : 138 MiB (10%)
Alignment : Split accross interleaves
Interleave, duration : 96 ms (2.40 video frames)
Interleave, preload duration : 96 ms
, , , ,
Релиз от:



Скачать Балканский.экспресс.Balkan.Ekspres.(Бранко.Балетич).[1983.комедия.DVDRip].[VO].torrent без регистрации
Золото ЗОЛОТАЯ РАЗДАЧА! СКАЧАННОЕ НЕ ЗАСЧИТЫВАЕТСЯ! Золото
Дата: Зарегистрирован   [ Тип: внутренний ] Как тут cкачать?
MAGNET ссылка
MAGNET ссылка


Скачать .torrent

14 KB

Статус: проверено DHT
Скачан: торрент - 119 раз, раздача полностью - 0 раз
Размер: 1,37 GB
Оценка:  - (Голосов: 0)
Поблагодарили: 3
Поделиться ссылкой на эту раздачу с друзьями:
В контактеFacebookОдноклассникиTwitterLivejournalМой МирLiveinternet
 

 
Показать сообщения:    


Вы не можете начинать темы
Вы не можете отвечать на сообщения
Вы не можете редактировать свои сообщения
Вы не можете удалять свои сообщения
Вы не можете голосовать в опросах
Вы не можете прикреплять файлы к сообщениям
Вы можете скачивать файлы