Loading...
Error

Скачать Исповедь невидимки / Memoirs of an Invisible Man (Джон Карпентер) [1992, фантастика, триллер, мелодрама, комедия, BDRip-AVC] [MVO]+[DVO]+[AVO]+[Sub] торрент без регистрации

 
Статистика раздачи
Размер:  2,74 GB   |    Скачан:  121 раз
Сидов:  1  [  0 KB/s  ]  
 
Автор Сообщение

Marsianka

[] 

Информация о фильме
Название: Исповедь невидимки
Оригинальное название: Memoirs of an Invisible Man
Год выхода: 1992
Жанр: фантастика, триллер, мелодрама, комедия
Режиссер: Джон Карпентер
В ролях: Чеви Чейз, Дэрил Ханна, Сэм Нилл, Майкл МакКин, Стивен Тоболовски, Джим Нортон, Пэт Скиппер, Пол Перри, Ричард Эпкар, Стив Барр, Грегори Пол Мартин, Патриция Хитон, Бэрри Кивел, Дональд Ли, Розалинд Чао, Джей Гербер, Шэй Даффин, Эдмунд Л. Шэфф, Сэм Андерсон, Илэйн Коррал Кендалл, Эллен Альбертини Дау, Джонатан Уиган, Иосиф Хобсон, Джон Карпентер, Чип Хеллер, Аарон Лустиг

О фильме:
В результате взрыва в научной лаборатории главный герой фильма становится невидимым. Это переворачивает всю его жизнь; циничные сотрудники ЦРУ начинают охоту на него, однако с помощью очаровательной подружки ему удается выйти победителем из схватки с негодяями.



Страна: США, Франция, Alcor Films, Canal+ [fr], Cornelius Productions, Regency Enterprises, Warner Bros. Pictures
Продолжительность: 01:39:05
Перевод: Профессиональный многоголосый, профессиональный двухголосый, авторский одноголосый
Субтитры: Русские, английские
Дата релиза: 30.11.2012

Файл
Кодек: H.264
Качество: BDRip (AVC) (BDRemux (1080p))
Видео: MPEG-4 AVC, 2621 Кбит/с, 1024x436, 23.976 кадра/с

Семпл
Аудио 1: Русский (AC3, 2 ch, 192 Кбит/с) профессиональный многоголосый
Аудио 2: Русский (AC3, 2 ch, 192 Кбит/с) профессиональный двухголосый (НТВ+)
Аудио 3: Русский (AC3, 1 ch, 192 Кбит/с) профессиональный двухголосый (ОРТ)
Аудио 4: Русский (AC3, 2 ch, 192 Кбит/с) авторский одноголосый (Гаврилов)
Аудио 5: Русский (AC3, 2 ch, 192 Кбит/с) авторский одноголосый (Королев)
Аудио 6: Русский (AC3, 2 ch, 192 Кбит/с) авторский одноголосый (Горчаков)
Аудио 7: Английский (AC3, 2 ch, 192 Кбит/с)
Общее
Уникальный идентификатор : 170472353622174199125995459323716599758 (0x803FC7F318C26670B36A48153AAE7FCE)
Полное имя : G:2Ispoved.nevidimki.1992.x264.BDRip.(AVC).ExKinoRay.mkv
Формат : Matroska
Версия формата : Version 2
Размер файла : 2,74 Гбайт
Продолжительность : 1 ч. 39 м.
Общий поток : 3965 Кбит/сек
Название фильма : Ispoved.nevidimki.1992.x264.BDRip.(AVC).ExKinoRay
Дата кодирования : UTC 2012-11-30 19:10:17
Программа кодирования : mkvmerge v4.0.0 ('The Stars were mine') сборка от Jun 6 2010 16:18:42
Библиотека кодирования : libebml v1.0.0 + libmatroska v1.0.0

Видео
Идентификатор : 1
Формат : AVC
Формат/Информация : Advanced Video Codec
Профиль формата : High@L4.1
Параметр CABAC формата : Да
Параметр ReFrames формата : 8 кадров
Идентификатор кодека : V_MPEG4/ISO/AVC
Продолжительность : 1 ч. 39 м.
Битрейт : 2621 Кбит/сек
Ширина : 1024 пикселя
Высота : 436 пикселей
Соотношение сторон : 2,35:1
Частота кадров : 23,976 кадра/сек
Цветовое пространство : YUV
Субдискретизация насыщенности : 4:2:0
Битовая глубина : 8 бит
Тип развёртки : Прогрессивная
Бит/(Пиксели*Кадры) : 0.245
Размер потока : 1,76 Гбайт (64%)
Заголовок : Rip by Enigma-Vladislav71
Библиотека кодирования : x264 core 116 r2074 2641b9e
Настройки программы : cabac=1 / ref=8 / deblock=1:-2:-2 / analyse=0x3:0x133 / me=umh / subme=11 / psy=1 / psy_rd=1.00:0.00 / mixed_ref=1 / me_range=48 / chroma_me=1 / trellis=2 / 8x8dct=1 / cqm=0 / deadzone=21,11 / fast_pskip=0 / chroma_qp_offset=-2 / threads=3 / sliced_threads=0 / nr=0 / decimate=0 / interlaced=0 / bluray_compat=0 / constrained_intra=0 / bframes=8 / b_pyramid=2 / b_adapt=2 / b_bias=0 / direct=3 / weightb=1 / open_gop=0 / weightp=2 / keyint=240 / keyint_min=23 / scenecut=40 / intra_refresh=0 / rc=2pass / mbtree=0 / bitrate=2621 / ratetol=1.0 / qcomp=0.60 / qpmin=10 / qpmax=51 / qpstep=4 / cplxblur=20.0 / qblur=0.5 / ip_ratio=1.40 / pb_ratio=1.30 / aq=2:1.00
Язык : English
Default : Нет
Forced : Нет

Аудио #1
Идентификатор : 2
Формат : AC-3
Формат/Информация : Audio Coding 3
Профиль формата : Dolby Digital
Расширение режима : CM (complete main)
Идентификатор кодека : A_AC3
Продолжительность : 1 ч. 39 м.
Вид битрейта : Постоянный
Битрейт : 192 Кбит/сек
Каналы : 2 канала
Расположение каналов : Front: L R
Частота : 48,0 КГц
Битовая глубина : 16 бит
Метод сжатия : С потерями
Размер потока : 136 Мбайт (5%)
Заголовок : профессиональный многоголосый
Язык : Russian
Default : Да
Forced : Нет

Аудио #2
Идентификатор : 3
Формат : AC-3
Формат/Информация : Audio Coding 3
Расширение режима : CM (complete main)
Идентификатор кодека : A_AC3
Продолжительность : 1 ч. 39 м.
Вид битрейта : Постоянный
Битрейт : 192 Кбит/сек
Каналы : 2 канала
Расположение каналов : Front: L R
Частота : 48,0 КГц
Битовая глубина : 16 бит
Метод сжатия : С потерями
Размер потока : 136 Мбайт (5%)
Заголовок : профессиональный двухголосый (НТВ+)
Язык : Russian
Default : Нет
Forced : Нет

Аудио #3
Идентификатор : 4
Формат : AC-3
Формат/Информация : Audio Coding 3
Расширение режима : CM (complete main)
Идентификатор кодека : A_AC3
Продолжительность : 1 ч. 39 м.
Вид битрейта : Постоянный
Битрейт : 192 Кбит/сек
Каналы : 1 канал
Расположение каналов : Front: C
Частота : 48,0 КГц
Битовая глубина : 16 бит
Метод сжатия : С потерями
Размер потока : 136 Мбайт (5%)
Заголовок : профессиональный двухголосый (ОРТ)
Язык : Russian
Default : Нет
Forced : Нет

Аудио #4
Идентификатор : 5
Формат : AC-3
Формат/Информация : Audio Coding 3
Профиль формата : Dolby Digital
Расширение режима : CM (complete main)
Идентификатор кодека : A_AC3
Продолжительность : 1 ч. 39 м.
Вид битрейта : Постоянный
Битрейт : 192 Кбит/сек
Каналы : 2 канала
Расположение каналов : Front: L R
Частота : 48,0 КГц
Битовая глубина : 16 бит
Метод сжатия : С потерями
Размер потока : 136 Мбайт (5%)
Заголовок : авторский одноголосый (Гаврилов)
Язык : Russian
Default : Нет
Forced : Нет

Аудио #5
Идентификатор : 6
Формат : AC-3
Формат/Информация : Audio Coding 3
Расширение режима : CM (complete main)
Идентификатор кодека : A_AC3
Продолжительность : 1 ч. 39 м.
Вид битрейта : Постоянный
Битрейт : 192 Кбит/сек
Каналы : 2 канала
Расположение каналов : Front: L R
Частота : 48,0 КГц
Битовая глубина : 16 бит
Метод сжатия : С потерями
Размер потока : 136 Мбайт (5%)
Заголовок : авторский одноголосый (Королев)
Язык : Russian
Default : Нет
Forced : Нет

Аудио #6
Идентификатор : 7
Формат : AC-3
Формат/Информация : Audio Coding 3
Расширение режима : CM (complete main)
Идентификатор кодека : A_AC3
Продолжительность : 1 ч. 39 м.
Вид битрейта : Постоянный
Битрейт : 192 Кбит/сек
Каналы : 2 канала
Расположение каналов : Front: L R
Частота : 48,0 КГц
Битовая глубина : 16 бит
Метод сжатия : С потерями
Размер потока : 136 Мбайт (5%)
Заголовок : авторский одноголосый (Горчаков)
Язык : Russian
Default : Нет
Forced : Нет

Аудио #7
Идентификатор : 8
Формат : AC-3
Формат/Информация : Audio Coding 3
Расширение режима : CM (complete main)
Идентификатор кодека : A_AC3
Продолжительность : 1 ч. 39 м.
Вид битрейта : Постоянный
Битрейт : 192 Кбит/сек
Каналы : 2 канала
Расположение каналов : Front: L R
Частота : 48,0 КГц
Битовая глубина : 16 бит
Метод сжатия : С потерями
Размер потока : 136 Мбайт (5%)
Заголовок : английский
Язык : English
Default : Нет
Forced : Нет

Текст #1
Идентификатор : 9
Формат : UTF-8
Идентификатор кодека : S_TEXT/UTF8
Идентификатор кодека/Информация : UTF-8 Plain Text
Язык : Russian
Default : Нет
Forced : Нет

Текст #2
Идентификатор : 10
Формат : UTF-8
Идентификатор кодека : S_TEXT/UTF8
Идентификатор кодека/Информация : UTF-8 Plain Text
Язык : English
Default : Нет
Forced : Нет

Меню
00:00:00.000 : en:Chapter 1
00:10:35.510 : en:Chapter 2
00:22:43.612 : en:Chapter 3
00:30:03.468 : en:Chapter 4
00:37:59.944 : en:Chapter 5
00:47:35.186 : en:Chapter 6
00:53:07.976 : en:Chapter 7
01:02:49.849 : en:Chapter 8
01:11:51.474 : en:Chapter 9
01:18:58.399 : en:Chapter 10
01:27:19.151 : en:Chapter 11
01:35:04.616 : en:Chapter 12
Релиз от:

Авторы релиза:



Скачать Исповедь.невидимки.Memoirs.of.an.Invisible.Man.(Джон.Карпентер).[1992.фантастика.триллер.мелодрама.комедия.BDRip-AVC].[MVO]+[DVO]+[AVO]+[Sub].torrent без регистрации
Золото ЗОЛОТАЯ РАЗДАЧА! СКАЧАННОЕ НЕ ЗАСЧИТЫВАЕТСЯ! Золото
Дата: Зарегистрирован   [ Тип: внутренний ] Как тут cкачать?
MAGNET ссылка
MAGNET ссылка


Скачать .torrent

14 KB

Статус: проверено DHT
Скачан: торрент - 121 раз, раздача полностью - 44 раз
Размер: 2,74 GB
Оценка:  - (Голосов: 0)
Поблагодарили: 2
Поделиться ссылкой на эту раздачу с друзьями:
В контактеFacebookОдноклассникиTwitterLivejournalМой МирLiveinternet
 

 
Показать сообщения:    


Вы не можете начинать темы
Вы не можете отвечать на сообщения
Вы не можете редактировать свои сообщения
Вы не можете удалять свои сообщения
Вы не можете голосовать в опросах
Вы не можете прикреплять файлы к сообщениям
Вы можете скачивать файлы