Loading...
Error

Скачать Джонни Д. / Public Enemies (Майкл Манн) [2009, драма, криминал, биография, история, BDRip-AVC] [Dub]+[Оригинал]+[Sub] торрент без регистрации

 
Статистика раздачи
Размер:  2,18 GB   |    Скачан:  251 раз
Сидов:  1  [  0 KB/s  ]  
 
Автор Сообщение

Marsianka

[] 

Джонни Д. / Public Enemies (2009) BDRip-AVC

Информация о фильме
Название: Джонни Д.
Оригинальное название: Public Enemies
Год выхода: 2009
Жанр: драма, криминал, биография, история
Режиссер: Майкл Манн

В ролях: Джонни Депп, Кристиан Бэйл, Марион Котийяр, Джованни Рибизи, Билли Крудап, Джон Ортиз, Стивен Грэм, Спенсер Гаррет, Джеймс Руссо, Дэвид Уэнэм, Эд Брюс

О фильме: Сюжет фильма повествует о легендарном грабителе банков Джоне Диллинджере. Дерзкие нападения сделали его выдающимся героем для всех угнетенных и главной мишенью для лучшего агента ФБР Мелвина Первиса и директора бюро Джона Эдгара Гувера. Никто не мог остановить банду Диллинджера. Ни одна тюрьма не могла его удержать. Обаяние и отчаянные побеги прославляли преступника в обществе, считавшем банки главной причиной Великой депрессии.

В то время, как приключения лихой банды, к которой примкнули Малыш Нельсон и Элвин Карпис, вдохновляли обозленных граждан, Гувер решил воспользоваться случаем и превратить Бюро расследований в главную правоохранительную организацию страны ФБР. Он сделал Диллинджера самым опасным врагом Америки, а спасителем нарек Первиса, гордость Федерального бюро.



Страна: США
Продолжительность: 02:19:43
Перевод: Дублированный, Оригинал (Английский)

Файл
Кодек: h.264
Качество: BDRip-AVC
Видео: 1024x428 (2,40:1), 23.976 fps, 1655 kbps, 0.157 bit/pixel
Аудио#1: 48 kHz, AC3 5.1, 384.00 kbps (Русский)
Аудио#2: 48 kHz, AC3 2.0, 192.00 kbps (Английский)
Субтитры: Русские, Украинские, Английские (отключаемые)

&
Общее
Уникальный идентификатор : 235847022525207994501236553041154905566 (0xB16E7BFAED3943CAAC250C924B8795DE)
Полное имя : D:Public Enemies.2009.BDRip-AVC.mkv
Формат : Matroska
Версия формата : Version 2
Размер файла : 2,18 Гбайт
Продолжительность : 2 ч. 19 м.
Общий поток : 2232 Кбит/сек
Название фильма : Джонни Д. / Public Enemies (2009) BDRip-AVC rip by Rulya74
Дата кодирования : UTC 2012-11-30 18:34:58
Программа кодирования : mkvmerge v5.7.0 ('The Whirlwind') built on Jul 8 2012 20:08:51
Библиотека кодирования : libebml v1.2.3 + libmatroska v1.3.0

Видео
Идентификатор : 1
Формат : AVC
Формат/Информация : Advanced Video Codec
Профиль формата : High@L4.1
Параметр CABAC формата : Да
Параметр ReFrames формата : 12 кадров
Идентификатор кодека : V_MPEG4/ISO/AVC
Продолжительность : 2 ч. 19 м.
Битрейт : 1655 Кбит/сек
Ширина : 1024 пикселя
Высота : 428 пикселей
Соотношение сторон : 2,40:1
Частота кадров : 23,976 кадра/сек
Цветовое пространство : YUV
Субдискретизация насыщенности : 4:2:0
Битовая глубина : 8 бит
Тип развёртки : Прогрессивная
Бит/(Пиксели*Кадры) : 0.157
Размер потока : 1,57 Гбайт (72%)
Библиотека кодирования : x264 core 129 r2230 1cffe9f
Настройки программы : cabac=1 / ref=12 / deblock=1:-1:-1 / analyse=0x3:0x133 / me=umh / subme=10 / psy=1 / psy_rd=1.07:0.02 / mixed_ref=1 / me_range=40 / chroma_me=1 / trellis=2 / 8x8dct=1 / cqm=0 / deadzone=21,11 / fast_pskip=0 / chroma_qp_offset=-3 / threads=2 / lookahead_threads=1 / sliced_threads=0 / nr=0 / decimate=1 / interlaced=0 / bluray_compat=0 / constrained_intra=0 / bframes=6 / b_pyramid=2 / b_adapt=2 / b_bias=0 / direct=3 / weightb=1 / open_gop=0 / weightp=2 / keyint=240 / keyint_min=23 / scenecut=40 / intra_refresh=0 / rc_lookahead=40 / rc=2pass / mbtree=1 / bitrate=1655 / ratetol=1.0 / qcomp=0.60 / qpmin=10 / qpmax=51 / qpstep=4 / cplxblur=20.0 / qblur=0.5 / ip_ratio=1.40 / aq=2:1.00
Default : Да
Forced : Нет

Аудио #1
Идентификатор : 2
Формат : AC-3
Формат/Информация : Audio Coding 3
Расширение режима : CM (complete main)
Идентификатор кодека : A_AC3
Продолжительность : 2 ч. 19 м.
Вид битрейта : Постоянный
Битрейт : 384 Кбит/сек
Каналы : 6 каналов
Расположение каналов : Front: L C R, Side: L R, LFE
Частота : 48,0 КГц
Битовая глубина : 16 бит
Метод сжатия : С потерями
Размер потока : 384 Мбайт (17%)
Заголовок : Дублированный
Язык : Russian
Default : Да
Forced : Нет

Аудио #2
Идентификатор : 3
Формат : AC-3
Формат/Информация : Audio Coding 3
Расширение режима : CM (complete main)
Идентификатор кодека : A_AC3
Продолжительность : 2 ч. 19 м.
Вид битрейта : Постоянный
Битрейт : 192 Кбит/сек
Каналы : 2 канала
Расположение каналов : Front: L R
Частота : 48,0 КГц
Битовая глубина : 16 бит
Метод сжатия : С потерями
Размер потока : 192 Мбайт (9%)
Заголовок : Оригинал
Язык : English
Default : Нет
Forced : Нет

Текст #1
Идентификатор : 4
Формат : UTF-8
Идентификатор кодека : S_TEXT/UTF8
Идентификатор кодека/Информация : UTF-8 Plain Text
Язык : Russian
Default : Нет
Forced : Нет

Текст #2
Идентификатор : 5
Формат : UTF-8
Идентификатор кодека : S_TEXT/UTF8
Идентификатор кодека/Информация : UTF-8 Plain Text
Язык : Ukrainian
Default : Нет
Forced : Нет

Текст #3
Идентификатор : 6
Формат : UTF-8
Идентификатор кодека : S_TEXT/UTF8
Идентификатор кодека/Информация : UTF-8 Plain Text
Язык : English
Default : Нет
Forced : Нет

Меню
00:00:00.000 : en:Prison Break
00:07:19.606 : en:Running from the Law
00:12:50.269 : en:Making Money
00:20:19.093 : en:Billie
00:25:53.469 : en:Modern Methods
00:31:33.850 : en:You're with Me Now
00:36:44.160 : en:Giving the Slip
00:42:13.489 : en:Sending for Backup
00:47:59.543 : en:Behind Bars
00:53:26.662 : en:The People's Hero
01:00:42.472 : en:Busting Out
01:08:18.052 : en:Bad for Business
01:15:23.185 : en:Times Change
01:21:45.484 : en:Let 'Em Have It!
01:33:49.207 : en:What If?
01:40:54.423 : en:Captured
01:48:13.529 : en:Inside Information
01:53:15.872 : en:What's the Score?
01:58:32.022 : en:Bye Bye Blackbird
02:11:25.336 : en:End Titles



Скачать Джонни.Д.Public.Enemies.(Майкл.Манн).[2009.драма.криминал.биография.история.BDRip-AVC].[Dub]+[Оригинал]+[Sub].torrent без регистрации
Золото ЗОЛОТАЯ РАЗДАЧА! СКАЧАННОЕ НЕ ЗАСЧИТЫВАЕТСЯ! Золото
Дата: Зарегистрирован   [ Тип: внутренний ] Как тут cкачать?
MAGNET ссылка
MAGNET ссылка


Скачать .torrent

11 KB

Статус: проверено DHT
Скачан: торрент - 251 раз, раздача полностью - 428 раз
Размер: 2,18 GB
Оценка:  - (Голосов: 0)
Поблагодарили: 6
Поделиться ссылкой на эту раздачу с друзьями:
В контактеFacebookОдноклассникиTwitterLivejournalМой МирLiveinternet
 

 
Показать сообщения:    


Вы не можете начинать темы
Вы не можете отвечать на сообщения
Вы не можете редактировать свои сообщения
Вы не можете удалять свои сообщения
Вы не можете голосовать в опросах
Вы не можете прикреплять файлы к сообщениям
Вы можете скачивать файлы