Loading...
Error

Скачать Матрица / The Matrix (Энди Вачовски, Ларри Вачовски) [1999 г., фантастика, боевик, приключения, BDRip-AVC] [Dub]+[Original (Eng)]+[Sub (Rus, Eng)] торрент без регистрации

 
Статистика раздачи
Размер:  2,55 GB   |    Скачан:  228 раз
Сидов:  1  [  0 KB/s  ]  
 
Автор Сообщение

Dinozavr

[] 

Матрица / The Matrix

«The World's population thinks it's real. On March 31st, they will see the Real World»


Год выпуска: 1999
Страна: США, Австралия
Жанр: фантастика, боевик, приключения
Продолжительность: 02:16:13
Перевод: Профессиональный (полное дублирование)
Субтитры: русские, английские
Оригинальная аудиодорожка: английская

Режиссер: Энди Вачовски, Ларри Вачовски

В ролях: Киану Ривз, Лоренс Фишбёрн, Кэрри-Энн Мосс, Хьюго Уивинг, Джо Пантольяно, Глория Фостер, Маркус Чонг, Джулиан Араханга, Мэтт Доран, Белинда МакКлори

Описание: Мир Матрицы — это иллюзия, существующая только в бесконечном сне обреченного человечества. Холодный мир будущего, в котором люди — всего лишь батарейки в компьютерных системах.



Качество: BDRip-AVC
Формат: MKV
Видео: x264, 1184x492 (2,40:1), 23,976 fps, 1902 kbps, 0.137 bpp
Аудио #1: AC-3, 384 kbps, 6 channels, 48 kHz [Rus]
Аудио #2: AC-3, 384 kbps, 6 channels, 48 kHz [Eng] (отдельно)
Субтитры #1: Русские, полные; SRT; (отдельно)
Субтитры #2: Английские, полные; SRT; (отдельно)

Код:


---[NoImage] avs [info]: 1184x492p 1:1 @ 24000/1001 fps (cfr)
---[NoImage] x264 [info]: using SAR=1/1
---[NoImage] x264 [info]: using cpu capabilities: MMX2 SSE2Fast SSSE3 FastShuffle SSE4.2
---[NoImage] x264 [info]: profile High, level 4.0
---[NoImage]
---[NoImage] x264 [info]: frame I:1583  Avg QP:21.29  size: 47795
---[NoImage] x264 [info]: frame P:39559 Avg QP:23.03  size: 18316
---[NoImage] x264 [info]: frame B:154810 Avg QP:24.40  size:  7386
---[NoImage] x264 [info]: consecutive B-frames:  1.8%  2.0%  5.6% 16.4% 17.9% 39.0%  7.1%  4.9%  1.7%  1.8%  0.8%  0.5%  0.2%  0.3%  0.1%
---[NoImage] x264 [info]: mb I  I16..4: 19.1% 69.2% 11.8%
---[NoImage] x264 [info]: mb P  I16..4:  2.7%  9.8%  1.2%  P16..4: 57.2% 13.9%  4.0%  0.2%  0.2%    skip:10.9%
---[NoImage] x264 [info]: mb B  I16..4:  0.1%  0.9%  0.1%  B16..8: 39.7%  7.0%  1.8%  direct: 5.2%  skip:45.2%  L0:44.3% L1:47.8% BI: 7.9%
---[NoImage] x264 [info]: final ratefactor: 21.48
---[NoImage] x264 [info]: 8x8 transform intra:73.2% inter:66.5%
---[NoImage] x264 [info]: direct mvs  spatial:100.0% temporal:0.0%
---[NoImage] x264 [info]: coded y,uvDC,uvAC intra: 80.0% 69.1% 38.0% inter: 19.7% 17.3% 4.4%
---[NoImage] x264 [info]: i16 v,h,dc,p: 28% 20% 11% 41%
---[NoImage] x264 [info]: i8 v,h,dc,ddl,ddr,vr,hd,vl,hu:  8%  7%  4% 11% 16% 15% 14% 12% 12%
---[NoImage] x264 [info]: i4 v,h,dc,ddl,ddr,vr,hd,vl,hu: 12%  8%  3%  9% 15% 15% 14% 12% 12%
---[NoImage] x264 [info]: i8c dc,h,v,p: 39% 25% 19% 17%
---[NoImage] x264 [info]: Weighted P-Frames: Y:4.8% UV:3.0%
---[NoImage] x264 [info]: ref P L0: 42.3%  9.8% 20.5%  7.4%  6.3%  4.6%  4.2%  2.2%  2.3%  0.3%  0.0%
---[NoImage] x264 [info]: ref B L0: 70.4% 13.3%  6.8%  3.4%  2.5%  2.1%  1.1%  0.3%
---[NoImage] x264 [info]: ref B L1: 90.7%  9.3%
---[NoImage] x264 [info]: kb/s:1902.48
---[NoImage] encoded 195952 frames, 4.75 fps, 1902.48 kb/s

Код:


Общее
Уникальный идентификатор                 : 175825999802345137154873862880025116492 (0x8446DB15D8F45F99BD3CF3F63113FF4C)
Полное имя                               : D:\TORRENT\Files\Matrix\Matrix.1999.D.BDRip.mkv
Формат                                   : Matroska
Версия формата                           : Version 2
Размер файла                             : 2,19 Гбайт
Продолжительность                        : 2 ч. 16 м.
Общий поток                              : 2297 Кбит/сек
Дата кодирования                         : UTC 2011-04-08 17:30:37
Программа кодирования                    : mkvmerge v4.6.0 ('Still Crazy After All These Years') сборка от Mar 10 2011 02:50:32
Библиотека кодирования                   : libebml v1.2.0 + libmatroska v1.1.0

Видео
Идентификатор                            : 1
Формат                                   : AVC
Формат/Информация                        : Advanced Video Codec
Профиль формата                          : High@L4.0
Параметр CABAC формата                   : Да
Параметр ReFrames формата                : 9 кадров
Идентификатор кодека                     : V_MPEG4/ISO/AVC
Продолжительность                        : 2 ч. 16 м.
Битрейт                                  : 1911 Кбит/сек
Ширина                                   : 1184 пикселя
Высота                                   : 492 пикселя
Соотношение сторон                       : 2,40:1
Режим частоты кадров                     : Постоянный
Частота кадров                           : 23,976 кадра/сек
Цветовое пространство                    : YUV
Субдискретизация насыщенности            : 4:2:0
Битовая глубина                          : 8 бит
Тип развёртки                            : Прогрессивная
Бит/(Пиксели*Кадры)                      : 0.137
Размер потока                            : 1,78 Гбайт (81%)
Заголовок                                : BDRip.1080p.by.WoRG
Библиотека кодирования                   : x264 core 114 r1924 08d04a4
Настройки программы                      : cabac=1 / ref=9 / deblock=1:-2:-2 / analyse=0x3:0x133 / me=umh / subme=10 / psy=1 / psy_rd=1.00:0.15 / mixed_ref=1 / me_range=24 / chroma_me=1 / trellis=2 / 8x8dct=1 / cqm=0 / deadzone=6,6 / fast_pskip=0 / chroma_qp_offset=-3 / threads=6 / sliced_threads=0 / nr=0 / decimate=0 / interlaced=0 / constrained_intra=0 / bframes=14 / b_pyramid=2 / b_adapt=2 / b_bias=0 / direct=3 / weightb=1 / open_gop=0 / weightp=2 / keyint=250 / keyint_min=23 / scenecut=40 / intra_refresh=0 / rc_lookahead=60 / rc=2pass / mbtree=1 / bitrate=1911 / ratetol=1.0 / qcomp=0.80 / qpmin=0 / qpmax=69 / qpstep=4 / cplxblur=20.0 / qblur=0.5 / ip_ratio=1.10 / aq=1:0.50
Язык                                     : English
Default                                  : Да
Forced                                   : Нет

Аудио
Идентификатор                            : 2
Формат                                   : AC-3
Формат/Информация                        : Audio Coding 3
Расширение режима                        : CM (complete main)
Параметр Endianness формата              : Big
Идентификатор кодека                     : A_AC3
Продолжительность                        : 2 ч. 16 м.
Вид битрейта                             : Постоянный
Битрейт                                  : 384 Кбит/сек
Каналы                                   : 6 каналов
Расположение каналов                     : Front: L C R, Side: L R, LFE
Частота                                  : 48,0 КГц
Битовая глубина                          : 16 бит
Метод сжатия                             : С потерями
Размер потока                            : 374 Мбайт (17%)
Заголовок                                : Dub
Язык                                     : Russian
Default                                  : Да
Forced                                   : Нет



Скачать Матрица.The.Matrix.(Энди.Вачовски.Ларри.Вачовски).[1999.г.фантастика.боевик.приключения.BDRip-AVC].[Dub]+[Original.(Eng)]+[Sub.(Rus.Eng)].torrent без регистрации
Золото ЗОЛОТАЯ РАЗДАЧА! СКАЧАННОЕ НЕ ЗАСЧИТЫВАЕТСЯ! Золото
Дата: Зарегистрирован   [ Тип: внутренний ] Как тут cкачать?
MAGNET ссылка
MAGNET ссылка


Скачать .torrent

13 KB

Статус: проверено DHT
Скачан: торрент - 228 раз, раздача полностью - 332 раз
Размер: 2,55 GB
Оценка:  - (Голосов: 0)
Поблагодарили: 4
Поделиться ссылкой на эту раздачу с друзьями:
В контактеFacebookОдноклассникиTwitterLivejournalМой МирLiveinternet
 

 
Показать сообщения:    


Вы не можете начинать темы
Вы не можете отвечать на сообщения
Вы не можете редактировать свои сообщения
Вы не можете удалять свои сообщения
Вы не можете голосовать в опросах
Вы не можете прикреплять файлы к сообщениям
Вы можете скачивать файлы