Loading...
Error

Скачать Прошу убежища / Chiedo asilo (Марко Феррери) [1979, драма, комедия, DVDRip] [DVO]+[Sub] торрент без регистрации

 
Статистика раздачи
Размер:  1,37 GB   |    Скачан:  130 раз
Сидов:  1  [  0 KB/s  ]  
 
Автор Сообщение

Marsianka

[] 

Прошу убежища / Chiedo asilo

Страна: Франция, Италия
Жанр: драма, комедия
Год выпуска: 1979
Продолжительность: 01:46:34
Перевод: Профессиональный (двухголосый закадровый)
Субтитры: есть Русские

Режиссёр: Марко Феррери / Marco Ferreri

В ролях: Роберто Бениньи, Франческа Де Сапио, Доминик Лаффен, Лука Леви, Джироламо Марцано, Карло Монни, Кьяра Моретти, Роберто Амаро

Описание фильма: Молодой эксцентричный учитель Роберто поступает на работу в подготовительную школу. С первых же дней он завоевывает симпатии детей, но вызывает беспокойство у начальства. Вскоре Роберто приводит на занятия настоящего осла, а через некоторое время организовывает поход на завод. Дети в восторге, но теперь против учителя ополчились и родители. Спустя время в жилище Роберто пожаловала полиция





Качество: DVDRip
Формат: AVI
Видео: DivX 5; 704x384 (16:9); 1437 Kbps; 25 fps; 0,213 bpp
Аудио 1: AC3; 192 Kbps; CBR; 2 ch [Русский]
Аудио 2: AC3; 192 Kbps; CBR; 2 ch [Italiano]









Общее
Формат : AVI
Формат/Информация : Audio Video Interleave
Размер файла : 1,37 Гбайт
Продолжительность : 1 ч. 46 м.
Общий поток : 1836 Кбит/сек
Программа кодирования : VirtualDubMod 1.5.10.2 (build 2540/release)
Библиотека кодирования : VirtualDubMod build 2540/release

Видео
Идентификатор : 0
Формат : MPEG-4 Visual
Параметр BVOP формата : 1
Параметр QPel формата : Нет
Параметр GMC формата : Без точки перехода
Параметр матрицы формата : Default (H.263)
Режим смешивания : Сжатый битовый поток
Идентификатор кодека : DX50
Идентификатор кодека/Подсказка : DivX 5
Продолжительность : 1 ч. 46 м.
Битрейт : 1438 Кбит/сек
Ширина : 704 пикселя
Высота : 384 пикселя
Соотношение сторон : 16:9
Частота кадров : 25,000 кадров/сек
Цветовое пространство : YUV
Субдискретизация насыщенности : 4:2:0
Битовая глубина : 8 бит
Тип развёртки : Прогрессивная
Метод сжатия : С потерями
Бит/(Пиксели*Кадры) : 0.213
Размер потока : 1,07 Гбайт (78%)
Библиотека кодирования : DivX 5.2.1 (WaffleDay) (UTC 2004-09-08)

Аудио #1
Идентификатор : 1
Формат : AC-3
Формат/Информация : Audio Coding 3
Расширение режима : CM (complete main)
Идентификатор кодека : 2000
Продолжительность : 1 ч. 46 м.
Вид битрейта : Постоянный
Битрейт : 192 Кбит/сек
Каналы : 2 канала
Расположение каналов : Front: L R
Частота : 48,0 КГц
Битовая глубина : 16 бит
Метод сжатия : С потерями
Задержка видео : 96 мс.
Размер потока : 146 Мбайт (10%)
Выравнивание : Разделение по промежуткам
Продолжительность промежутка : 40 мс. (1,00 видеокадр)
Время предзагрузки промежутка : 500 мс.

Аудио #2
Идентификатор : 2
Формат : AC-3
Формат/Информация : Audio Coding 3
Расширение режима : CM (complete main)
Идентификатор кодека : 2000
Продолжительность : 1 ч. 46 м.
Вид битрейта : Постоянный
Битрейт : 192 Кбит/сек
Каналы : 2 канала
Расположение каналов : Front: L R
Частота : 48,0 КГц
Битовая глубина : 16 бит
Метод сжатия : С потерями
Задержка видео : 96 мс.
Размер потока : 146 Мбайт (10%)
Выравнивание : Разделение по промежуткам
Продолжительность промежутка : 40 мс. (1,00 видеокадр)
Время предзагрузки промежутка : 500 мс.

Релиз от: sergdoc



Скачать Прошу.убежища.Chiedo.asilo.(Марко.Феррери).[1979.драма.комедия.DVDRip].[DVO]+[Sub].torrent без регистрации
Золото ЗОЛОТАЯ РАЗДАЧА! СКАЧАННОЕ НЕ ЗАСЧИТЫВАЕТСЯ! Золото
Дата: Зарегистрирован   [ Тип: внутренний ] Как тут cкачать?
MAGNET ссылка
MAGNET ссылка


Скачать .torrent

14 KB

Статус: проверено DHT
Скачан: торрент - 130 раз, раздача полностью - 19 раз
Размер: 1,37 GB
Оценка:  - (Голосов: 0)
Поблагодарили: 0
Поделиться ссылкой на эту раздачу с друзьями:
В контактеFacebookОдноклассникиTwitterLivejournalМой МирLiveinternet
 

 
Показать сообщения:    


Вы не можете начинать темы
Вы не можете отвечать на сообщения
Вы не можете редактировать свои сообщения
Вы не можете удалять свои сообщения
Вы не можете голосовать в опросах
Вы не можете прикреплять файлы к сообщениям
Вы можете скачивать файлы