Loading...
Error

Скачать На несколько долларов больше / Per qualche dollaro in pi© / For A Few Dollars More (Серджио Леоне) [1965, боевик, приключения, вестерн, BDRip-AVC] [MVO]+[AVO]+[Sub] торрент без регистрации

 
Статистика раздачи
Размер:  4,32 GB   |    Скачан:  117 раз
Сидов:  1  [  0 KB/s  ]  
 
Автор Сообщение

Marsianka

[] 

Информация о фильме
Название: На несколько долларов больше
Оригинальное название: Per qualche dollaro in piu
Год выхода: 1965
Жанр: боевик, приключения, вестерн
Режиссер: Серджио Леоне
В ролях: Клинт Иствуд, Ли Ван Клиф, Жиан Мария Волонте, Клаус Кински, Луиджи Пистилли, Мара Круп, Йозеф Эггер, Бенито Стефанелли и Марио Брега

О фильме:
В центре фильма два «охотника за головами» ищущие на Диком Западе бандитов, отставной полковник армии конфедератов, Дуглас Мортимер (его играет Ли Ван Клиф), и мастерски орудующий пистолетом одной рукой блондин по прозвищу Однорукий (Mancо; его играет Клинт Иствуд). Их пути пересекаются во время охоты за Индейцем (El Indio) бежавшим из тюрьмы главарём банды, который осуществляет ограбление банка в Эль-Пасо. Этому персонажу свойственны пристрастие к марихуане, немотированные приступы хохота и безумный взгляд, сопровождающий воспоминания о некогда учинённой им зверской расправе над семейной парой. Пропущенный через фильм музыкальный мотив звона карманных часов намекает на то, что та девушка, память об изнасиловании и самоубийстве которой жжёт душу Индейца, приходилась полковнику сестрой.



Страна: Италия, Испания, Германия (ФРГ)
Продолжительность: 02:12:15
Перевод: Профессиональный многоголосый, авторский одноголосый
Субтитры: Русские, английские
Дата релиза: 02.12.2012

Файл
Кодек: H.264
Качество: BDRip (AVC) (BDRemux (1080p))
Видео: MPEG-4 AVC, 2621 Кбит/с, 1024x436, 23.976 кадр/с
Звук:
Аудио 1: Русский (AC3, 6 ch, 448 Кбит/с) - профессиональный многоголосый (SomeWax)
Аудио 2: Русский (AC3, 6 ch, 448 Кбит/с) - авторский одноголосый (Д.Пучков "Goblin")
Аудио 3: Русский (AC3, 6 ch, 448 Кбит/с) - авторский одноголосый (В.Горчаков)
Аудио 4: Русский (AC3, 2 ch, 256 Кбит/с) - авторский одноголосый (А.Гаврилов)
Аудио 5: Английский (AC3, 6 ch, 448 Кбит/с)
Общее
Уникальный идентификатор : 214162765432897703894996268558119680488 (0xA11E3F901082B42FAFD7AAD86D3539E8)
Полное имя : G:1Na.neskolko.dollarov.bolshe.1965.x264.BDRip.(AVC).ExKinoRay.mkv
Формат : Matroska
Версия формата : Version 2
Размер файла : 4,32 Гбайт
Продолжительность : 2 ч. 12 м.
Общий поток : 4669 Кбит/сек
Название фильма : Na.neskolko.dollarov.bolshe.1965.x264.BDRip.(AVC).ExKinoRay
Дата кодирования : UTC 2012-12-02 12:10:38
Программа кодирования : mkvmerge v4.0.0 ('The Stars were mine') сборка от Jun 6 2010 16:18:42
Библиотека кодирования : libebml v1.0.0 + libmatroska v1.0.0

Видео
Идентификатор : 1
Формат : AVC
Формат/Информация : Advanced Video Codec
Профиль формата : High@L4.1
Параметр CABAC формата : Да
Параметр ReFrames формата : 8 кадров
Идентификатор кодека : V_MPEG4/ISO/AVC
Продолжительность : 2 ч. 12 м.
Битрейт : 2621 Кбит/сек
Ширина : 1024 пикселя
Высота : 436 пикселей
Соотношение сторон : 2,35:1
Частота кадров : 23,976 кадра/сек
Цветовое пространство : YUV
Субдискретизация насыщенности : 4:2:0
Битовая глубина : 8 бит
Тип развёртки : Прогрессивная
Бит/(Пиксели*Кадры) : 0.245
Размер потока : 2,34 Гбайт (54%)
Заголовок : Rip by Enigma-Vladislav71
Библиотека кодирования : x264 core 116 r2074 2641b9e
Настройки программы : cabac=1 / ref=8 / deblock=1:-2:-2 / analyse=0x3:0x133 / me=umh / subme=11 / psy=1 / psy_rd=1.00:0.00 / mixed_ref=1 / me_range=48 / chroma_me=1 / trellis=2 / 8x8dct=1 / cqm=0 / deadzone=21,11 / fast_pskip=0 / chroma_qp_offset=-2 / threads=3 / sliced_threads=0 / nr=0 / decimate=0 / interlaced=0 / bluray_compat=0 / constrained_intra=0 / bframes=8 / b_pyramid=2 / b_adapt=2 / b_bias=0 / direct=3 / weightb=1 / open_gop=0 / weightp=2 / keyint=240 / keyint_min=23 / scenecut=40 / intra_refresh=0 / rc=2pass / mbtree=0 / bitrate=2621 / ratetol=1.0 / qcomp=0.60 / qpmin=10 / qpmax=51 / qpstep=4 / cplxblur=20.0 / qblur=0.5 / ip_ratio=1.40 / pb_ratio=1.30 / aq=2:1.00
Язык : English
Default : Нет
Forced : Нет

Аудио #1
Идентификатор : 2
Формат : AC-3
Формат/Информация : Audio Coding 3
Расширение режима : CM (complete main)
Идентификатор кодека : A_AC3
Продолжительность : 2 ч. 12 м.
Вид битрейта : Постоянный
Битрейт : 448 Кбит/сек
Каналы : 6 каналов
Расположение каналов : Front: L C R, Side: L R, LFE
Частота : 48,0 КГц
Битовая глубина : 16 бит
Метод сжатия : С потерями
Размер потока : 424 Мбайт (10%)
Заголовок : Профессиональный многоголосый (SomeWax)
Язык : Russian
Default : Да
Forced : Нет

Аудио #2
Идентификатор : 3
Формат : AC-3
Формат/Информация : Audio Coding 3
Расширение режима : CM (complete main)
Идентификатор кодека : A_AC3
Продолжительность : 2 ч. 12 м.
Вид битрейта : Постоянный
Битрейт : 448 Кбит/сек
Каналы : 6 каналов
Расположение каналов : Front: L C R, Side: L R, LFE
Частота : 48,0 КГц
Битовая глубина : 16 бит
Метод сжатия : С потерями
Размер потока : 424 Мбайт (10%)
Заголовок : Авторский одноголосый закадровый (Д.Пучков "Goblin")
Язык : Russian
Default : Нет
Forced : Нет

Аудио #3
Идентификатор : 4
Формат : AC-3
Формат/Информация : Audio Coding 3
Расширение режима : CM (complete main)
Идентификатор кодека : A_AC3
Продолжительность : 2 ч. 12 м.
Вид битрейта : Постоянный
Битрейт : 448 Кбит/сек
Каналы : 6 каналов
Расположение каналов : Front: L C R, Side: L R, LFE
Частота : 48,0 КГц
Битовая глубина : 16 бит
Метод сжатия : С потерями
Размер потока : 424 Мбайт (10%)
Заголовок : Авторский одноголосый (В.Горчаков)
Язык : Russian
Default : Нет
Forced : Нет

Аудио #4
Идентификатор : 5
Формат : AC-3
Формат/Информация : Audio Coding 3
Расширение режима : CM (complete main)
Идентификатор кодека : A_AC3
Продолжительность : 2 ч. 12 м.
Вид битрейта : Постоянный
Битрейт : 256 Кбит/сек
Каналы : 2 канала
Расположение каналов : Front: L R
Частота : 48,0 КГц
Битовая глубина : 16 бит
Метод сжатия : С потерями
Размер потока : 242 Мбайт (5%)
Заголовок : Авторский одноголосый (А.Гаврилов)
Язык : Russian
Default : Нет
Forced : Нет

Аудио #5
Идентификатор : 6
Формат : AC-3
Формат/Информация : Audio Coding 3
Расширение режима : CM (complete main)
Идентификатор кодека : A_AC3
Продолжительность : 2 ч. 12 м.
Вид битрейта : Постоянный
Битрейт : 448 Кбит/сек
Каналы : 6 каналов
Расположение каналов : Front: L C R, Side: L R, LFE
Частота : 48,0 КГц
Битовая глубина : 16 бит
Метод сжатия : С потерями
Размер потока : 424 Мбайт (10%)
Заголовок : Английский
Язык : English
Default : Нет
Forced : Нет

Текст #1
Идентификатор : 7
Формат : UTF-8
Идентификатор кодека : S_TEXT/UTF8
Идентификатор кодека/Информация : UTF-8 Plain Text
Язык : Russian
Default : Да
Forced : Нет

Текст #2
Идентификатор : 8
Формат : UTF-8
Идентификатор кодека : S_TEXT/UTF8
Идентификатор кодека/Информация : UTF-8 Plain Text
Язык : English
Default : Нет
Forced : Нет

Меню
00:00:00.000 : en:Chapter 01
00:06:53.413 : en:Chapter 02
00:12:33.169 : en:Chapter 03
00:20:48.622 : en:Chapter 04
00:26:31.590 : en:Chapter 05
00:31:09.951 : en:Chapter 06
00:38:09.036 : en:Chapter 07
00:44:59.905 : en:Chapter 08
00:51:53.401 : en:Chapter 09
00:57:36.119 : en:Chapter 10
01:02:26.492 : en:Chapter 11
01:09:48.642 : en:Chapter 12
01:15:12.841 : en:Chapter 13
01:22:40.163 : en:Chapter 14
01:28:46.529 : en:Chapter 15
01:34:13.689 : en:Chapter 16
01:40:38.240 : en:Chapter 17
01:46:59.621 : en:Chapter 18
01:53:16.623 : en:Chapter 19
01:58:48.079 : en:Chapter 20
Семпл Релиз от:

Авторы релиза:



Скачать На.несколько.долларов.больше.Per.qualche.dollaro.in.pi©.For.A.Few.Dollars.More.(Серджио.Леоне).[1965.боевик.приключения.вестерн.BDRip-AVC].[MVO]+[AVO]+[Sub].torrent без регистрации
Золото ЗОЛОТАЯ РАЗДАЧА! СКАЧАННОЕ НЕ ЗАСЧИТЫВАЕТСЯ! Золото
Дата: Зарегистрирован   [ Тип: внутренний ] Как тут cкачать?
MAGNET ссылка
MAGNET ссылка


Скачать .torrent

22 KB

Статус: проверено DHT
Скачан: торрент - 117 раз, раздача полностью - 65 раз
Размер: 4,32 GB
Оценка:  - (Голосов: 0)
Поблагодарили: 0
Поделиться ссылкой на эту раздачу с друзьями:
В контактеFacebookОдноклассникиTwitterLivejournalМой МирLiveinternet
 

 
Показать сообщения:    


Вы не можете начинать темы
Вы не можете отвечать на сообщения
Вы не можете редактировать свои сообщения
Вы не можете удалять свои сообщения
Вы не можете голосовать в опросах
Вы не можете прикреплять файлы к сообщениям
Вы можете скачивать файлы