Loading...
Error

/ Leverage ( 5, 01-15 15) ( ) [2011, , WEB-DL] [720p] [MVO] (LostFilm)

 
21,25 GB   |    :  150
1  [  0 KB/s  ]  
 

leon030982

[] 


/ Leverage


: 5 / : 1-13 (18)
: | USA

:
: 2012
: ~0:45:00
: ( ) LostFilm
C:
: / Dean Devlin
:
(Timothy Hutton), (Gina Bellman), (Christian Kane), (Beth Riesgraf), (Aldis Hodge) .

:
: , , . , .

:
8.1/10 (1,649 )
Imdb: 7.8/10 (1,803 votes)
: by vlaluk
: WEB-DL 720p
: MKV
: H.264 (AVC)
: AC3
: 1280x720 at 23.976 fps, MPEG-4 AVC, ~4000 kbps avg, ~0.190 bit/pixel
Rus: 48 kHz, AC3 Dolby Digital, 3/2 (L,C,R,l,r) + LFE ch, ~384 kbps avg / LostFilm /
Eng: 48 kHz, AC3 Dolby Digital, 3/2 (L,C,R,l,r) + LFE ch, ~384 kbps avg / /

[b]01. (The (Very) Big Bird Job)
02. (The Blue Line Job)
03. (The First Contact Job)
04. (The French Connection Job)
05. (The Gimme a K Street Job)
06. .. (The D.B. Cooper Job)
07. (The Real Fake Car Job)
08. (The Broken Wing Job)
09. (The Rundown Job)
10. (The Frame-Up Jobb)
11. (The Low Low Price Job)

:

Video
ID : 1
Format : AVC
Format/Info : Advanced Video Codec
Format profile : High@L3.1
Format settings, CABAC : No
Format settings, ReFrames : 2 frames
Codec ID : V_MPEG4/ISO/AVC
Duration : 42mn 16s
Bit rate : 3 994 Kbps
Width : 1 272 pixels
Height : 712 pixels
Display aspect ratio : 16:9
Frame rate : 23.976 fps
Color space : YUV
Chroma subsampling : 4:2:0
Bit depth : 8 bits
Scan type : Progressive
Bits/(Pixel*Frame) : 0.184
Stream size : 1.18 GiB (82%)
Title : Season 5, Episode 01: The (Very) Big Bird Job - Release for HDCLUB by vlaluk
Language : English
Default : Yes
Forced : No
Color primaries : BT.709-5, BT.1361, IEC 61966-2-4, SMPTE RP177
Transfer characteristics : BT.709-5, BT.1361
Matrix coefficients : BT.709-5, BT.1361, IEC 61966-2-4 709, SMPTE RP177
Audio #1
ID : 2
Format : AC-3
Format/Info : Audio Coding 3
Mode extension : CM (complete main)
Codec ID : A_AC3
Duration : 42mn 16s
Bit rate mode : Constant
Bit rate : 384 Kbps
Channel(s) : 6 channels
Channel positions : Front: L C R, Side: L R, LFE
Sampling rate : 48.0 KHz
Bit depth : 16 bits
Compression mode : Lossy
Stream size : 116 MiB (8%)
Title : DD 5.1 @ 384 kbps @ LostFilm
Language : Russian
Default : Yes
Forced : No
Audio #2
ID : 3
Format : AC-3
Format/Info : Audio Coding 3
Mode extension : CM (complete main)
Codec ID : A_AC3
Duration : 42mn 16s
Bit rate mode : Constant
Bit rate : 384 Kbps
Channel(s) : 6 channels
Channel positions : Front: L C R, Side: L R, LFE
Sampling rate : 48.0 KHz
Bit depth : 16 bits
Compression mode : Lossy
Stream size : 116 MiB (8%)
Title : DD 5.1 @ 384 kbps
Language : English
Default : No
Forced : No
Text
ID : 4
Format : UTF-8
Codec ID : S_TEXT/UTF8
Codec ID/Info : UTF-8 Plain Text
Title : English @ SRT
Language : English
Default : No
Forced : No


!


! ; . , :
(1) ,
(2) ( ),
(3) , .
() ( - ), . , !
E , , .
29.12.12 15- ! ..



..Leverage.(.5..01-15..15).(.).[2011..WEB-DL].[720p].[MVO].(LostFilm).torrent
  ! ! 
:   [ : ] c?
MAGNET
MAGNET


.torrent

55 KB

: DHT
: - 150 , - 13
: 21,25 GB
5 (: 1)
: 5
:
 FacebookTwitterLivejournal Liveinternet
 

 
: