Loading...
Error

Скачать Портал юрского периода: Новый мир / Первобытное: Новый мир / Primеvаl: New World (сезон 01) (Аманда Тэппинг, Энди Микита, Мартин Вуд, Майк Рол) [2012, фантастика, драма, HDTVRip] [720p] [MVO (BaibaKo)] торрент без регистрации

 
Статистика раздачи
Размер:  16,99 GB   |    Скачан:  212 раз
Сидов:  1  [  0 KB/s  ]  
 
Автор Сообщение

МихаНЕзатор

[] 



Название: Портал юрского периода: Новый мир / Первобытное: Новый мир
Оригинальное название: Primеvаl: New World
Год выпуска: 2012
Страна: Канада , Великобритания
Жанр: Фантастика, драма
Продолжительность: 04 х ~00:42:00 мин

Субтитры: Английские
Русские субтитры: нет
Режиссёр: Аманда Тэппинг, Энди Микита, Мартин Вуд, Майк Рол
В ролях: Найалл Мэйттер, Сара Каннинг, Кристал Лоу, Миранда Фригон, Джофф Густафссон, Дэнни Рахим, Эндрю Ли Поттс

Описание: На территории Ванкувера неожиданно появляются динозавры и другие доисторические животные. Виной тому - аномалии, созданные порталами в пространстве и времени. Изучением этих аномалий и существ занимаются группа гражданских под предводительством Эвана Кросса.
«Портал юрского периода: Новый мир» научно-фантастический сериал британско-канадского производства. Это спин-офф (ответвление) британского сериала «Портал юрского периода». События разворачиваются после пятого сезона оригинального сериала. Режиссируют сериал Аманда Тэппинг и Энди Микита (Звёздные врата).

Перевод: Профессиональный (многоголосый закадровый) (BaibaKo)
Автор перевода: Янина Галицкая
Озвучка: Светлана Доманова, Татьяна Оболевич, Владимир Курдов и Алексей Кузнецов

Качество: HDTVRip 720p
Формат: MKV
Видео кодек: H.264
Аудио кодек: AC3
Видео: 1280x720 (16/9), 25.000 fps, 3 859 Kbps, 0.191 bit/pixel
Аудио Rus: AC3 6 каналов 48,0 КГц 384 Кбит/сек CBR
Аудио Eng: AC3 6 каналов 48,0 КГц 384 Кбит/сек CBR

Релиз от:

24.05.2013 г. торент обновлён, добавлена 13 серия, сезон полностью!

01. Новый мир / The New World
02. Sisiutl /
03. Страх полета / Fear of Flying
04. Angry Birds / Злые птички
05. Undone
06. Зачистка в супермаркете / Clean up on Aisle Three
07. Крошки в лесу / Babes in the Woods
08. Truth / Истина
09. Breakthrough / Прорыв
10. The Great Escape / Большой побег
11. The Inquisition
12. The Sound of Thunder (Part 1)
13. The Sound of Thunder (Part 2)
General
Unique ID : 200820833789799611584448595519308209795 (0x9714AF8BB0C8336A8827217A7B329E83)
Complete name : Primеvаl.New.World.s01e01.HDTV720p.Rus.Eng.BaibaKo.tv.mkv
Format : Matroska
Format version : Version 2
File size : 1.40 GiB
Duration : 42mn 22s
Overall bit rate : 4 720 Kbps
Movie name : BaibaKo.tv presents - Портал Юрского периода: Новый мир 1x01
Encoded date : UTC 2012-11-01 22:08:38
Writing application : mkvmerge v5.4.0 ('Piper') built on Mar 10 2012 13:34:39
Writing library : libebml v1.2.3 + libmatroska v1.3.0

Video
ID : 1
Format : AVC
Format/Info : Advanced Video Codec
Format profile : High@L4.1
Format settings, CABAC : Yes
Format settings, ReFrames : 5 frames
Codec ID : V_MPEG4/ISO/AVC
Duration : 42mn 22s
Bit rate : 3 859 Kbps
Width : 1 280 pixels
Height : 720 pixels
Display aspect ratio : 16:9
Frame rate : 23.976 fps
Color space : YUV
Chroma subsampling : 4:2:0
Bit depth : 8 bits
Scan type : Progressive
Bits/(Pixel*Frame) : 0.175
Stream size : 1.14 GiB (82%)
Writing library : x264 core 128 r2216 198a7ea
Encoding settings : cabac=1 / ref=5 / deblock=1:0:0 / analyse=0x3:0x113 / me=umh / subme=8 / psy=1 / psy_rd=1.00:0.00 / mixed_ref=1 / me_range=16 / chroma_me=1 / trellis=1 / 8x8dct=1 / cqm=0 / deadzone=21,11 / fast_pskip=1 / chroma_qp_offset=-2 / threads=12 / lookahead_threads=2 / sliced_threads=0 / nr=0 / decimate=1 / interlaced=0 / bluray_compat=0 / constrained_intra=0 / bframes=3 / b_pyramid=2 / b_adapt=2 / b_bias=0 / direct=3 / weightb=1 / open_gop=0 / weightp=2 / keyint=250 / keyint_min=23 / scenecut=40 / intra_refresh=0 / rc_lookahead=50 / rc=crf / mbtree=1 / crf=18.0 / qcomp=0.60 / qpmin=0 / qpmax=69 / qpstep=4 / ip_ratio=1.40 / aq=1:1.00
Language : English
Default : Yes
Forced : No
Matrix coefficients : BT.709-5, BT.1361, IEC 61966-2-4 709, SMPTE RP177

Audio #1
ID : 2
Format : AC-3
Format/Info : Audio Coding 3
Mode extension : CM (complete main)
Format settings, Endianness : Big
Codec ID : A_AC3
Duration : 42mn 22s
Bit rate mode : Constant
Bit rate : 384 Kbps
Channel(s) : 6 channels
Channel positions : Front: L C R, Side: L R, LFE
Sampling rate : 48.0 KHz
Bit depth : 16 bits
Compression mode : Lossy
Stream size : 116 MiB (8%)
Title : Rus BaibaKo.tv DD5.1
Language : Russian
Default : Yes
Forced : No

Audio #2
ID : 3
Format : AC-3
Format/Info : Audio Coding 3
Mode extension : CM (complete main)
Format settings, Endianness : Big
Codec ID : A_AC3
Duration : 42mn 22s
Bit rate mode : Constant
Bit rate : 384 Kbps
Channel(s) : 6 channels
Channel positions : Front: L C R, Side: L R, LFE
Sampling rate : 48.0 KHz
Bit depth : 16 bits
Compression mode : Lossy
Stream size : 116 MiB (8%)
Title : Eng DD5.1
Language : English
Default : No
Forced : No



Скачать Портал.юрского.периода.Новый.мир.Первобытное.Новый.мир.Primеvаl.New.World.(сезон.01).(Аманда.Тэппинг.Энди.Микита.Мартин.Вуд.Майк.Рол).[2012.фантастика.драма.HDTVRip].[720p].[MVO.(BaibaKo)].torrent без регистрации
Золото ЗОЛОТАЯ РАЗДАЧА! СКАЧАННОЕ НЕ ЗАСЧИТЫВАЕТСЯ! Золото
Дата: Зарегистрирован   [ Тип: внутренний ] Как тут cкачать?
MAGNET ссылка
MAGNET ссылка


Скачать .torrent

44 KB

Статус: проверено DHT
Скачан: торрент - 212 раз, раздача полностью - 60 раз
Размер: 16,99 GB
Оценка:  5 (Голосов: 2)
Поблагодарили: 6
Поделиться ссылкой на эту раздачу с друзьями:
В контактеFacebookОдноклассникиTwitterLivejournalМой МирLiveinternet
 

 

МихаНЕзатор

[] 

Раздача обновлена.
 
Показать сообщения:    


Вы не можете начинать темы
Вы не можете отвечать на сообщения
Вы не можете редактировать свои сообщения
Вы не можете удалять свои сообщения
Вы не можете голосовать в опросах
Вы не можете прикреплять файлы к сообщениям
Вы можете скачивать файлы