Loading...
Error

Скачать Подпольная империя / Boardwalk Empire (Полный 3-ий сезон) (Тимоти Ван Паттен, Аллен Култер) [2012, драма, криминал, WEB-DL] [720p] [AVO] (Ю. Сербин) + [MVO] (LostFilm) торрент без регистрации

 
Статистика раздачи
Размер:  24,02 GB   |    Скачан:  681 раз
Сидов:  1  [  0 KB/s  ]  
 
Автор Сообщение

leon030982

[] 



Подпольная империя / Boardwalk Empire


Год выпуска: 2012
Страна: США
Жанр: Криминальная драма
Продолжительность: ~ 58 минут
Перевод: Авторский (одноголосый закадровый) - Ю. Сербин
Перевод: Профессиональный (многоголосый, закадровый) (LostFilm)
Субтитры: Eng
Режиссёр: Тимоти Ван Паттен
В ролях: Стив Бушеми (Enoch «Nucky» Thompson), Майкл Питт (James «Jimmy» Darmody), Ши Уигхэм (Elias «Eli» Thompson), Майкл Шеннон (Agent Nelson Van Alden), Келли Макдоналд (Margaret Schroeder), Алекса Палладино (Angela Darmody), Майкл Сталберг (Arnold Rothstein), Стивен Грэм (Al Capone), Винсент Пьяцца, Пас де ла Уэрта (Lucy Danziger) и др.
Описание: События сериала Boardwalk Empire происходят в 1920, начале 1930 годов, во время рассвета сухого закона и итальянской мафии. В сериале представлены такие знаменитости криминального мира, как Сальваторе «Счастливчик» Лучиано и Аль Капоне. Главные герои, Наки Томпсон (в исполнении Стива Бушеми) – негласный правитель Атлантик-Сити, в равной степени гангстер и политик и его помошник Джимми Дармоди (Майкл Питт). Зрители сериала окунутся в грязный мир политики и игорного бизнеса, мафиозных разборок и зажигательного варьете.
Сериал снят по мотивам романа Нельсона Джонсона, посвященной зарождению одного из крупнейших игорных центров США — Атлантик-Сити. Роли в сериале исполняют мировые знаменитости — Стив Бушеми, Келли МакДональд, Майкл Шеннон, Майкл К. Уильямс и другие. Станет ли «Boardwalk Empire» таким же незабываемым сериалом как «The Sopranos» или «The Wire» покажет время.

Качество: WEB-DL 720p
Формат: MKV
Видео кодек: H.264
Аудио кодек: AC3
Видео: 1280x720 (16:9), 23.976 fps, ~3 876 Kbps kbps, ~0.210 bit/pixel
Аудио Rus: 48 kHz, 6 ch, ~384 kbps |Ю. Сербин|
Аудио Rus: 2 48 kHz, 6 ch, ~384 kbps |LostFilm|
Аудио Eng: 48 kHz, 6 ch, ~384 kbps |Original|

Монтаж и работа со звуком: Nez
/ Сэмпл / ImDB / Кинопоиск
General
Unique ID : 173892881931915584903231488239143669490 (0x82D28D04096D4084A692930F7192CEF2)
Complete name : D:\РАЗДАЧИ (Запас)\Boardwalk.Empire.S03.720p.WEB-DL.2xRus.Eng.HDCLUB\Boardwalk.Empire.S03E01.720p.WEB-DL.2xRus.Eng.HDCLUB.mkv
Format : Matroska
File size : 2.04 GiB
Duration : 56mn 59s
Overall bit rate : 5 122 Kbps
Movie name : Boardwalk Empire [Season 3] (2012) - Release for HDCLUB
Encoded date : UTC 2012-10-13 07:40:03
Writing application : mkvmerge v5.8.0 ('No Sleep / Pillow') built on Sep 2 2012 15:37:04
Writing library : libebml v1.2.3 + libmatroska v1.3.0
Video
ID : 1
Format : AVC
Format/Info : Advanced Video Codec
Format profile : High@L3.1
Format settings, CABAC : No
Format settings, ReFrames : 2 frames
Codec ID : V_MPEG4/ISO/AVC
Duration : 56mn 59s
Bit rate : 3 868 Kbps
Width : 1 280 pixels
Height : 720 pixels
Display aspect ratio : 16:9
Frame rate : 23.976 fps
Color space : YUV
Chroma subsampling : 4:2:0
Bit depth : 8 bits
Scan type : Progressive
Bits/(Pixel*Frame) : 0.175
Stream size : 1.54 GiB (76%)
Title : Boardwalk Empire 3x01: Resolution / Обещание - Release for HDCLUB
Language : English
Color primaries : BT.709-5, BT.1361, IEC 61966-2-4, SMPTE RP177
Transfer characteristics : BT.709-5, BT.1361
Matrix coefficients : BT.709-5, BT.1361, IEC 61966-2-4 709, SMPTE RP177
Audio #1
ID : 2
Format : AC-3
Format/Info : Audio Coding 3
Mode extension : CM (complete main)
Codec ID : A_AC3
Duration : 56mn 59s
Bit rate mode : Constant
Bit rate : 384 Kbps
Channel(s) : 6 channels
Channel positions : Front: L C R, Side: L R, LFE
Sampling rate : 48.0 KHz
Bit depth : 16 bits
Compression mode : Lossy
Stream size : 157 MiB (7%)
Title : Ю. Сербин
Language : Russian
Audio #2
ID : 3
Format : AC-3
Format/Info : Audio Coding 3
Mode extension : CM (complete main)
Codec ID : A_AC3
Duration : 56mn 59s
Bit rate mode : Constant
Bit rate : 384 Kbps
Channel(s) : 6 channels
Channel positions : Front: L C R, Side: L R, LFE
Sampling rate : 48.0 KHz
Bit depth : 16 bits
Compression mode : Lossy
Stream size : 157 MiB (7%)
Title : LostFilm
Language : Russian
Audio #3
ID : 4
Format : AC-3
Format/Info : Audio Coding 3
Mode extension : CM (complete main)
Codec ID : A_AC3
Duration : 56mn 59s
Bit rate mode : Constant
Bit rate : 384 Kbps
Channel(s) : 6 channels
Channel positions : Front: L C R, Side: L R, LFE
Sampling rate : 48.0 KHz
Bit depth : 16 bits
Compression mode : Lossy
Stream size : 157 MiB (7%)
Language : English
Text
ID : 5
Format : UTF-8
Codec ID : S_TEXT/UTF8
Codec ID/Info : UTF-8 Plain Text
Language : English

[b]Внимание! Раздача ведётся путём добавления новых серий; при каждом добавлении создётся новый торрент. Чтобы начать докачку новой серии, пользователям необходимо сделать следующее:

1) остановить скачивание,
2) удалить старый торрент у себя из клиента (старые серии удалять не надо),
3) скачать новый торрент и запустить его у себя в клиенте вместо старого, при этом указать клиенту путь в старую папку куда и должно происходить скачивание новых серий.
Ваш клиент при этом должен произвести хеширование (проверку) старой папки (если не производит сам - помогите ему сделать это), и будет докачивать только те серии которых у вас ещё нет. Старые серии при этом не удаляются, а продолжают раздаваться!
Eсли вы уже удалили старые серии, то предотвратить повторную закачку старых серий можно, отжав галочку в соответсвующих местах при запуске нового торрента.
[align=center]



Скачать Подпольная.империя.Boardwalk.Empire.(Полный.3-ий.сезон).(Тимоти.Ван.Паттен.Аллен.Култер).[2012.драма.криминал.WEB-DL].[720p].[AVO].(Ю.Сербин).+.[MVO].(LostFilm).torrent без регистрации
Золото ЗОЛОТАЯ РАЗДАЧА! СКАЧАННОЕ НЕ ЗАСЧИТЫВАЕТСЯ! Золото
Дата: Зарегистрирован   [ Тип: внутренний ] Как тут cкачать?
MAGNET ссылка
MAGNET ссылка


Скачать .torrent

122 KB

Статус: проверено DHT
Скачан: торрент - 681 раз, раздача полностью - 471 раз
Размер: 24,02 GB
Оценка:  5 (Голосов: 2)
Поблагодарили: 3
Поделиться ссылкой на эту раздачу с друзьями:
В контактеFacebookОдноклассникиTwitterLivejournalМой МирLiveinternet
 

 
Показать сообщения:    


Вы не можете начинать темы
Вы не можете отвечать на сообщения
Вы не можете редактировать свои сообщения
Вы не можете удалять свои сообщения
Вы не можете голосовать в опросах
Вы не можете прикреплять файлы к сообщениям
Вы можете скачивать файлы