Loading...
Error

Скачать За тех, кого мы любим / For Those We Love (Таку Шине) [2007, военный, DVDRip] [VO] торрент без регистрации

 
Статистика раздачи
Размер:  1,37 GB   |    Скачан:  117 раз
Сидов:  1  [  0 KB/s  ]  
 
Автор Сообщение

Marsianka

[] 



Информация о фильме
Название: За тех, кого мы любим
Оригинальное название: For Those We Love
Год выхода: 2007
Жанр: военный
Режиссер: Таку Шине
В ролях: Тору Эмори, Кацутака Фурухата, Клеве Грэй, Ичиро Хашимото, Масато Ибу, Рэндзи Исибаси, Хироши Кацуно, Нобору Кимура, Кейко Киши, Есуке Кубодзука, Ясуюки Маекава, Юри Мияшита, Сатору Мацуо, Норико Накагоши, Томоя Накамура, Харуку Рен, Микако Табе, Минори Терада, Кеничи Эндо

О фильме:
Этот фильм рассказывает о тех людях, кому начальством и судьбой был приготовлен билет в один конец- КАМИКАДЗЕ, о том как жили они, чем дышали, как любили, как их готовили и как умирали, в самоубийственных атаках, во славу императора.



Страна: Япония
Студия: Toei Company
Продолжительность: 02:15:20
Перевод: Профессиональный(одноголосый закадровый)

Файл
Кодек: XviD
Качество: DVDRip
Видео: 672x384, 1254 kbps, 23.976 fps
Звук: AC3, 2 ch, 192 kbps, 48.0 khz
General
Complete name : C:Za.tech.kogo.mi.lubim.2007.XviD.DVDRip.avi
Format : AVI
Format/Info : Audio Video Interleave
File size : 1.37 GiB
Duration : 2h 15mn 20s
Overall bit rate : 1 453 Kbps
Writing application : VirtualDubMod 1.5.4.1 (build 2178/release)
Writing library : VirtualDubMod build 2178/release
Video #0
ID : 0
Format : MPEG-4 Visual
Format profile : Advanced Simple@L5
Format settings, BVOP : 1
Format settings, QPel : No
Format settings, GMC : No warppoints
Format settings, Matrix : Custom
Codec ID : XVID
Codec ID/Hint : XviD
Duration : 2h 15mn 20s
Bit rate : 1 254 Kbps
Width : 672 pixels
Height : 384 pixels
Display aspect ratio : 16:9
Frame rate : 23.976 fps
Color space : YUV
Chroma subsampling : 4:2:0
Bit depth : 8 bits
Scan type : Progressive
Compression mode : Lossy
Bits/(Pixel*Frame) : 0.203
Stream size : 1.19 GiB (86%)
Writing library : XviD 64
Audio #1
ID : 1
Format : AC-3
Format/Info : Audio Coding 3
Mode extension : CM (complete main)
Format settings, Endianness : Big
Codec ID : 2000
Duration : 2h 15mn 20s
Bit rate mode : Constant
Bit rate : 192 Kbps
Channel(s) : 2 channels
Channel positions : Front: L R
Sampling rate : 48.0 KHz
Bit depth : 16 bits
Compression mode : Lossy
Stream size : 186 MiB (13%)
Alignment : Split accross interleaves
Interleave, duration : 96 ms (2.30 video frames)
Interleave, preload duration : 96 ms
, , , ,
Релиз от:



Скачать За.тех.кого.мы.любим.For.Those.We.Love.(Таку.Шине).[2007.военный.DVDRip].[VO].torrent без регистрации
Золото ЗОЛОТАЯ РАЗДАЧА! СКАЧАННОЕ НЕ ЗАСЧИТЫВАЕТСЯ! Золото
Дата: Зарегистрирован   [ Тип: внутренний ] Как тут cкачать?
MAGNET ссылка
MAGNET ссылка


Скачать .torrent

14 KB

Статус: проверено DHT
Скачан: торрент - 117 раз, раздача полностью - 139 раз
Размер: 1,37 GB
Оценка:  5 (Голосов: 1)
Поблагодарили: 3
Поделиться ссылкой на эту раздачу с друзьями:
В контактеFacebookОдноклассникиTwitterLivejournalМой МирLiveinternet
 

 
Показать сообщения:    


Вы не можете начинать темы
Вы не можете отвечать на сообщения
Вы не можете редактировать свои сообщения
Вы не можете удалять свои сообщения
Вы не можете голосовать в опросах
Вы не можете прикреплять файлы к сообщениям
Вы можете скачивать файлы