Loading...
Error

Скачать Ниндзя 3: Подчинение / Ninja III: The Domination (Сэм Фёрстенберг) [1984, ужасы, боевик, SATRip-AVC] [MVO] торрент без регистрации

 
Статистика раздачи
Размер:  757 MB   |    Скачан:  130 раз
Сидов:  1  [  0 KB/s  ]  
 
Автор Сообщение

Marsianka

[] 

Информация о фильме
Название: Ниндзя III: Подчинение
Оригинальное название: Ninja III: The Domination
Год выхода: 1984
Жанр: ужасы, боевик
Режиссер: Сэм Фёрстенберг
В ролях: Сё Косуги, Люсинда Дикки, Джордан Беннетт, Дэвид Чун, Дэйл Ишимото, Джеймс Хонг, Боб Крэйг, Памела Несс, Рой Падилла, Мо Мосли

О фильме:
Кристи сексапильная инструкторша по аэробике. Она убивала мужчин своей сногсшибательной внешностью, пока с ней не произошел странный случай. В идеальное тело Кристи вселился дух идеального убийцы погибшего ниндзя по имени Ямада. Кристи превращается в настоящую машину для убийств и жестоко, в стиле ниндзя, расправляется с людьми, повинными в смерти Ямады. Остановить инструкторшу, одержимую злым духом, сможет только другой ниндзя.



Страна: США
Продолжительность: 01:26:04
Перевод: Профессиональный (многоголосый, закадровый) СТС

Файл
Формат: MKV
Кодек: Н.264
Качество: SATRip-AVC
Видео: 660 х 496, 25 кадров/сек, 1100 Кбит/сек
Звук: MP3, 48 КГц, 2 канала, 128 Кбит/сек
Субтитры: отсутствуют
Формат : Matroska
Версия формата : Version 2
Размер файла : 757 Мбайт
Продолжительность : 1 ч. 26 м.
Общий поток : 1229 Кбит/сек
Дата кодирования : UTC 2012-04-08 17:50:54
Программа кодирования : mkvmerge v5.3.0 ('I could have danced') built on Feb 9 2012 10:38:07
Библиотека кодирования : libebml v1.2.3 + libmatroska v1.3.0

Видео
Идентификатор : 2
Формат : AVC
Формат/Информация : Advanced Video Codec
Профиль формата : High@L3.0
Параметр CABAC формата : Да
Параметр ReFrames формата : 4 кадра
Режим смешивания : Header stripping
Идентификатор кодека : V_MPEG4/ISO/AVC
Продолжительность : 1 ч. 26 м.
Битрейт : 1100 Кбит/сек
Ширина : 660 пикселей
Высота : 496 пикселей
Соотношение сторон : 4:3
Частота кадров : 25,000 кадров/сек
Цветовое пространство : YUV
Субдискретизация насыщенности : 4:2:0
Битовая глубина : 8 бит
Тип развёртки : Прогрессивная
Бит/(Пиксели*Кадры) : 0.135
Размер потока : 663 Мбайт (88%)
Библиотека кодирования : x264 core 120 r2164 da19765
Настройки программы : cabac=1 / ref=3 / deblock=1:0:0 / analyse=0x3:0x111 / me=hex / subme=7 / psy=1 / psy_rd=1.00:0.00 / mixed_ref=1 / me_range=16 / chroma_me=1 / trellis=1 / 8x8dct=1 / cqm=0 / deadzone=21,11 / fast_pskip=1 / chroma_qp_offset=-2 / threads=6 / sliced_threads=0 / nr=0 / decimate=1 / interlaced=0 / bluray_compat=0 / constrained_intra=0 / bframes=3 / b_pyramid=2 / b_adapt=1 / b_bias=0 / direct=1 / weightb=1 / open_gop=0 / weightp=2 / keyint=250 / keyint_min=25 / scenecut=40 / intra_refresh=0 / rc_lookahead=40 / rc=2pass / mbtree=1 / bitrate=1100 / ratetol=1.0 / qcomp=0.60 / qpmin=0 / qpmax=69 / qpstep=4 / cplxblur=20.0 / qblur=0.5 / ip_ratio=1.40 / aq=1:1.00
Язык : English
Default : Да
Forced : Нет

Аудио
Идентификатор : 1
Формат : MPEG Audio
Версия формата : Version 1
Профиль формата : Layer 3
Режим : Joint stereo
Расширение режима : MS Stereo
Режим смешивания : Header stripping
Идентификатор кодека : A_MPEG/L3
Идентификатор кодека/Подсказка : MP3
Продолжительность : 1 ч. 26 м.
Вид битрейта : Постоянный
Битрейт : 128 Кбит/сек
Каналы : 2 канала
Частота : 48,0 КГц
Метод сжатия : С потерями
Размер потока : 78,8 Мбайт (10%)
Default : Да
Forced : Нет





Скачать Ниндзя.3.Подчинение.Ninja.III.The.Domination.(Сэм.Фёрстенберг).[1984.ужасы.боевик.SATRip-AVC].[MVO].torrent без регистрации
Золото ЗОЛОТАЯ РАЗДАЧА! СКАЧАННОЕ НЕ ЗАСЧИТЫВАЕТСЯ! Золото
Дата: Зарегистрирован   [ Тип: внутренний ] Как тут cкачать?
MAGNET ссылка
MAGNET ссылка


Скачать .torrent

15 KB

Статус: проверено DHT
Скачан: торрент - 130 раз, раздача полностью - 3 раз
Размер: 757 MB
Оценка:  - (Голосов: 0)
Поблагодарили: 0
Поделиться ссылкой на эту раздачу с друзьями:
В контактеFacebookОдноклассникиTwitterLivejournalМой МирLiveinternet
 

 
Показать сообщения:    


Вы не можете начинать темы
Вы не можете отвечать на сообщения
Вы не можете редактировать свои сообщения
Вы не можете удалять свои сообщения
Вы не можете голосовать в опросах
Вы не можете прикреплять файлы к сообщениям
Вы можете скачивать файлы