Loading...
Error

Скачать Ночные ястребы / Nighthawks (Брюс Мэлмат, Гэри Нельсон) [1981, боевик, триллер, криминал, HDTVRip-AVC] [MVO]+[AVO]+[Sub] торрент без регистрации

 
Статистика раздачи
Размер:  2,22 GB   |    Скачан:  113 раз

Полного источника не было: 26 минут

 
Автор Сообщение

Marsianka

[] 

Информация о фильме
Название: Ночные ястребы
Оригинальное название: Nighthawks
Год выхода: 1981
Жанр: боевик, триллер, криминал
Режиссер: Брюс Мэлмат, Гэри Нельсон
В ролях: Сильвестр Сталлоне, Билли Ди Уильямс, Линдсэй Вагнер, Персис Хамбатта, Найджел Дэвенпорт, Рутгер Хауэр, Хилари Томпсон, Джо Спинелл, Уолтер Мэтьюз, Э. Брайан Дин

О фильме:
Отчаянный сержант нью-йоркской полиции Дик Де Сильва привык ловить преступников в экстремальной ситуации «на живца», в роли которого всегда выступал он сам. Но «адреналиновой» службе приходит конец, после того, как героя переводят во вновь созданное антитеррористическое подразделение. Однако скучать в новой должности Де Сильве не пришлось. В Нью-Йорке объявился самый разыскиваемой террорист на Земле безжалостный убийца Хеймар Райнхардт, известный всему миру, как Вульфгар, который захватывает заложников прямо в воздухе, в вагончике фуникулера, следующего на Рузвельт Айленд. Теперь самый бесстрашный коп должен будет сразиться с самым жестоким террористом!



Страна: США
Студия: Universal Pictures, Martin Poll Productions, The Production Company
Продолжительность: 01:35:07
Перевод: Профессиональный (многоголосый закадровый), авторский (одноголосый закадровый)

Файл
Кодек: h264
Качество: HDTVRip-AVC
Видео: MPEG-4 AVC, 2381 Кбит/с, 1024x556, 25.000 кадр/с
1: Русский (AC3, 2 ch, 192 Кбит/с) Профессиональный многоголосый
2: Русский (AC3, 2 ch, 192 Кбит/с) Авторский одноголосый [Андрей Гаврилов]
3: Русский (AC3, 2 ch, 192 Кбит/с) Авторский одноголосый [Алексей Михалев]
4: Русский (AC3, 2 ch, 192 Кбит/с) Авторский одноголосый [Сергей Кузнецов]
5: Английский (AC3, 2 ch, 192 Кбит/с)

Субтитры: Английские

Полное имя : Nochnie.yastrebi.1981.x264.HDTVRip.(AVC).0ptimus.mkv
Формат : Matroska
Версия формата : Version 2
Размер файла : 2,22 Гбайт
Продолжительность : 1 ч. 35 м.
Общий поток : 3342 Кбит/сек
Название фильма : Ночные ястребы / Nighthawks [1981] -=HDTVRip (AVC) by 0ptimus=-
Дата кодирования : UTC 2012-12-04 10:23:02
Программа кодирования : mkvmerge v5.8.0 ('No Sleep / Pillow') built on Sep 2 2012 15:37:04
Библиотека кодирования : libebml v1.2.3 + libmatroska v1.3.0

Видео
Идентификатор : 1
Формат : AVC
Формат/Информация : Advanced Video Codec
Профиль формата : High@L4.1
Параметр CABAC формата : Да
Параметр ReFrames формата : 9 кадров
Идентификатор кодека : V_MPEG4/ISO/AVC
Продолжительность : 1 ч. 35 м.
Битрейт : 2381 Кбит/сек
Ширина : 1024 пикселя
Высота : 556 пикселей
Соотношение сторон : 1,85:1
Режим частоты кадров : Постоянный
Частота кадров : 25,000 кадров/сек
Цветовое пространство : YUV
Субдискретизация насыщенности : 4:2:0
Битовая глубина : 8 бит
Тип развёртки : Прогрессивная
Бит/(Пиксели*Кадры) : 0.167
Размер потока : 1,54 Гбайт (69%)
Заголовок : Rip by 0ptimus
Библиотека кодирования : x264 core 122 r2184 5c85e0a
Настройки программы : cabac=1 / ref=9 / deblock=1:-2:-1 / analyse=0x3:0x113 / me=umh / subme=10 / psy=1 / psy_rd=1.00:0.20 / mixed_ref=1 / me_range=32 / chroma_me=1 / trellis=2 / 8x8dct=1 / cqm=0 / deadzone=21,11 / fast_pskip=0 / chroma_qp_offset=-3 / threads=4 / sliced_threads=0 / nr=0 / decimate=1 / interlaced=0 / bluray_compat=0 / constrained_intra=0 / bframes=6 / b_pyramid=2 / b_adapt=2 / b_bias=0 / direct=3 / weightb=1 / open_gop=0 / weightp=2 / keyint=240 / keyint_min=24 / scenecut=40 / intra_refresh=0 / rc=2pass / mbtree=0 / bitrate=2381 / ratetol=1.0 / qcomp=0.60 / qpmin=0 / qpmax=69 / qpstep=4 / cplxblur=20.0 / qblur=0.5 / ip_ratio=1.40 / pb_ratio=1.30 / aq=1:1.00
Язык : Russian
Default : Да
Forced : Нет

Аудио #1
Идентификатор : 2
Формат : AC-3
Формат/Информация : Audio Coding 3
Расширение режима : CM (complete main)
Параметр Endianness формата : Big
Идентификатор кодека : A_AC3
Продолжительность : 1 ч. 35 м.
Вид битрейта : Постоянный
Битрейт : 192 Кбит/сек
Каналы : 2 канала
Расположение каналов : Front: L R
Частота : 48,0 КГц
Битовая глубина : 16 бит
Метод сжатия : С потерями
Размер потока : 131 Мбайт (6%)
Заголовок : Многоголосый
Язык : Russian
Default : Да
Forced : Да

Аудио #2
Идентификатор : 3
Формат : AC-3
Формат/Информация : Audio Coding 3
Расширение режима : CM (complete main)
Параметр Endianness формата : Big
Идентификатор кодека : A_AC3
Продолжительность : 1 ч. 35 м.
Вид битрейта : Постоянный
Битрейт : 192 Кбит/сек
Каналы : 2 канала
Расположение каналов : Front: L R
Частота : 48,0 КГц
Битовая глубина : 16 бит
Метод сжатия : С потерями
Размер потока : 131 Мбайт (6%)
Заголовок : Авторский [Андрей Гаврилов]
Язык : Russian
Default : Нет
Forced : Нет

Аудио #3
Идентификатор : 4
Формат : AC-3
Формат/Информация : Audio Coding 3
Расширение режима : CM (complete main)
Параметр Endianness формата : Big
Идентификатор кодека : A_AC3
Продолжительность : 1 ч. 35 м.
Вид битрейта : Постоянный
Битрейт : 192 Кбит/сек
Каналы : 2 канала
Расположение каналов : Front: L R
Частота : 48,0 КГц
Битовая глубина : 16 бит
Метод сжатия : С потерями
Размер потока : 131 Мбайт (6%)
Заголовок : Авторский [Алексей Михалев]
Язык : Russian
Default : Нет
Forced : Нет

Аудио #4
Идентификатор : 5
Формат : AC-3
Формат/Информация : Audio Coding 3
Расширение режима : CM (complete main)
Параметр Endianness формата : Big
Идентификатор кодека : A_AC3
Продолжительность : 1 ч. 35 м.
Вид битрейта : Постоянный
Битрейт : 192 Кбит/сек
Каналы : 2 канала
Расположение каналов : Front: L R
Частота : 48,0 КГц
Битовая глубина : 16 бит
Метод сжатия : С потерями
Размер потока : 131 Мбайт (6%)
Заголовок : Авторский [Сергей Кузнецов]
Язык : Russian
Default : Нет
Forced : Нет

Аудио #5
Идентификатор : 6
Формат : AC-3
Формат/Информация : Audio Coding 3
Расширение режима : CM (complete main)
Параметр Endianness формата : Big
Идентификатор кодека : A_AC3
Продолжительность : 1 ч. 35 м.
Вид битрейта : Постоянный
Битрейт : 192 Кбит/сек
Каналы : 2 канала
Расположение каналов : Front: L R
Частота : 48,0 КГц
Битовая глубина : 16 бит
Метод сжатия : С потерями
Размер потока : 131 Мбайт (6%)
Default : Нет
Forced : Нет

Текст
Идентификатор : 7
Формат : UTF-8
Идентификатор кодека : S_TEXT/UTF8
Идентификатор кодека/Информация : UTF-8 Plain Text
Язык : English
Default : Нет
Forced : Нет

Меню
00:00:00.000 : :Chapter 01
00:01:48.639 : :Chapter 02
00:07:15.520 : :Chapter 03
00:14:15.720 : :Chapter 04
00:22:47.680 : :Chapter 05
00:28:55.400 : :Chapter 06
00:34:31.520 : :Chapter 07
00:41:09.199 : :Chapter 08
00:47:17.000 : :Chapter 09
00:54:59.840 : :Chapter 10
01:01:51.800 : :Chapter 11
01:06:51.400 : :Chapter 12
01:13:28.040 : :Chapter 13
01:19:15.479 : :Chapter 14
01:25:27.040 : :Chapter 15
01:31:40.760 : :Chapter 16

x264 [info]: frame I:1100 Avg QP:14.19 size:109195
x264 [info]: frame P:31860 Avg QP:17.23 size: 29220
x264 [info]: frame B:109733 Avg QP:20.14 size: 5892
Релиз от: 0ptimus



Скачать Ночные.ястребы.Nighthawks.(Брюс.Мэлмат.Гэри.Нельсон).[1981.боевик.триллер.криминал.HDTVRip-AVC].[MVO]+[AVO]+[Sub].torrent без регистрации
Золото ЗОЛОТАЯ РАЗДАЧА! СКАЧАННОЕ НЕ ЗАСЧИТЫВАЕТСЯ! Золото
Дата: Зарегистрирован   [ Тип: внутренний ] Как тут cкачать?
MAGNET ссылка
MAGNET ссылка


Скачать .torrent

12 KB

Статус: проверено DHT
Скачан: торрент - 113 раз, раздача полностью - 10 раз
Размер: 2,22 GB
Оценка:  - (Голосов: 0)
Поблагодарили: 1
Поделиться ссылкой на эту раздачу с друзьями:
В контактеFacebookОдноклассникиTwitterLivejournalМой МирLiveinternet
 

 
Показать сообщения:    


Вы не можете начинать темы
Вы не можете отвечать на сообщения
Вы не можете редактировать свои сообщения
Вы не можете удалять свои сообщения
Вы не можете голосовать в опросах
Вы не можете прикреплять файлы к сообщениям
Вы можете скачивать файлы