Loading...
Error

Скачать Титаник / Titanic (Джеймс Кэмерон / James Cameron) [1997 г., драма, мелодрама, HDRip] [2xDub]+[Original (Eng)]+[Sub (Rus, Eng)] [Open Matte] торрент без регистрации

 
Статистика раздачи
Размер:  2,71 GB   |    Скачан:  311 раз
Сидов:  1  [  0 KB/s  ]  
 
Автор Сообщение

Dinozavr

[] 

Титаник / Titanic

«Ничто на Земле не сможет разлучить их»


Год выпуска: 1997
Страна: США
Жанр: драма, мелодрама
Продолжительность: 03:14:55
Перевод #1: Профессиональный дублированный 1997 года
Перевод #2: Профессиональный дублированный 2012 года
Субтитры: русские, английские (отдельно)
Оригинальная аудиодорожка: английская

Режиссер: Джеймс Кэмерон / James Cameron

В ролях: Леонардо ДиКаприо, Кейт Уинслет, Билли Зейн, Кэти Бейтс, Фрэнсис Фишер, Глория Стюарт, Билл Пэкстон, Бернард Хилл, Дэвид Уорнер, Виктор Гарбер

Описание: Молодые влюбленные Джек и Роза находят друг друга в первом и последнем плавании «непотопляемого» Титаника. Они не могли знать, что шикарный лайнер столкнется с айсбергом в холодных водах Северной Атлантики, и их страстная любовь превратится в схватку со смертью…

Дополнительная информация: Представлена Open Matte версия - версия фильма, изображение у которой расширено сверху и снизу кадра, OAR=16:9.


Автор рипа:
Disciple

Качество: HDRip (source: BDRip 720p)
Формат: AVI
Видео: 688x384 (1.79:1), 23.976 fps, XviD build 64 ~1410 kbps avg, 0.22 bit/pixel
Аудио #1: Russian; 48 kHz, AC3 Dolby Digital, 2/0 (L,R) ch, ~192 kbps [Dub (1997 года)]
Аудио #2: Russian; 48 kHz, AC3 Dolby Digital, 2/0 (L,R) ch, ~192 kbps [Dub (2012 года)] (отдельно)
Аудио #3: English; 48 kHz, AC3 Dolby Digital, 2/0 (L,R) ch, ~192 kbps (отдельно)
Формат субтитров: softsub (.srt)

Код:

Общее
Полное имя                               : Titanic.Open.matte.1997.HDRip.-Disciple.avi
Формат                                   : AVI
Формат/Информация                        : Audio Video Interleave
Профиль формата                          : OpenDML
Размер файла                             : 2,19 Гбайт
Продолжительность                        : 3 ч. 14 м.
Общий поток                              : 1609 Кбит/сек
Название фильма                          : Titanic.Open.matte.1997.HDRip.-Disciple
Программа кодирования                    : VirtualDubModRus 1.5.10.2 (build 2542/release)
Примечание                               : Rip by Disciple

Видео
Идентификатор                            : 0
Формат                                   : MPEG-4 Visual
Профиль формата                          : Advanced Simple@L5
Параметр BVOP формата                    : 1
Параметр QPel формата                    : Нет
Параметр GMC формата                     : Без точки перехода
Параметр матрицы формата                 : Выборочная
Идентификатор кодека                     : XVID
Идентификатор кодека/Подсказка           : XviD
Продолжительность                        : 3 ч. 14 м.
Битрейт                                  : 1406 Кбит/сек
Ширина                                   : 688 пикселей
Высота                                   : 384 пикселя
Соотношение сторон                       : 16:9
Соотношение сторон в оригинале           : 16:9
Частота кадров                           : 23,976 кадра/сек
Цветовое пространство                    : YUV
Субдискретизация насыщенности            : 4:2:0
Битовая глубина                          : 8 бит
Тип развёртки                            : Прогрессивная
Метод сжатия                             : С потерями
Бит/(Пиксели*Кадры)                      : 0.222
Размер потока                            : 1,91 Гбайт (87%)
Библиотека кодирования                   : XviD 64

Аудио
Идентификатор                            : 1
Формат                                   : AC-3
Формат/Информация                        : Audio Coding 3
Расширение режима                        : CM (complete main)
Параметр Endianness формата              : Big
Идентификатор кодека                     : 2000
Продолжительность                        : 3 ч. 14 м.
Вид битрейта                             : Постоянный
Битрейт                                  : 192 Кбит/сек
Каналы                                   : 2 канала
Расположение каналов                     : Front: L R
Частота                                  : 48,0 КГц
Битовая глубина                          : 16 бит
Метод сжатия                             : С потерями
Размер потока                            : 268 Мбайт (12%)
Выравнивание                             : Разделение по промежуткам
Продолжительность промежутка             : 42  мс. (1,00 видеокадр)
Время предзагрузки промежутка            : 500  мс.
Заголовок                                : Дубляж 1997 года




Скачать Титаник.Titanic.(Джеймс.Кэмерон.James.Cameron).[1997.г.драма.мелодрама.HDRip].[2xDub]+[Original.(Eng)]+[Sub.(Rus.Eng)].[Open.Matte].torrent без регистрации
Золото ЗОЛОТАЯ РАЗДАЧА! СКАЧАННОЕ НЕ ЗАСЧИТЫВАЕТСЯ! Золото
Дата: Зарегистрирован   [ Тип: внутренний ] Как тут cкачать?
MAGNET ссылка
MAGNET ссылка


Скачать .torrent

15 KB

Статус: проверено DHT
Скачан: торрент - 311 раз, раздача полностью - 163 раз
Размер: 2,71 GB
Оценка:  5 (Голосов: 1)
Поблагодарили: 3
Поделиться ссылкой на эту раздачу с друзьями:
В контактеFacebookОдноклассникиTwitterLivejournalМой МирLiveinternet
 

 
Показать сообщения:    


Вы не можете начинать темы
Вы не можете отвечать на сообщения
Вы не можете редактировать свои сообщения
Вы не можете удалять свои сообщения
Вы не можете голосовать в опросах
Вы не можете прикреплять файлы к сообщениям
Вы можете скачивать файлы