Loading...
Error

Скачать Новые трюки / New Tricks (Полный 1-ый сезон) (Поль Сид, Джеми Пейн, Джон Ист) [2004, Детектив, драма, DVDRip] [VO] (-Доцент-) + [original eng] + [eng sub] торрент без регистрации

 
Статистика раздачи
Размер:  4,59 GB   |    Скачан:  141 раз
Сидов:  1  [  0 KB/s  ]  
 
Автор Сообщение

leon030982

[] 


Новые трюки. Сезон 1.

New Tricks. Season 1.
«Back on the case again.»
Год выпуска: 2004
Страна: Великобритания
Жанр: Комедия, Криминал, Драма
Продолжительность: ~60 мин серия
Перевод: Авторский одноголосый закадровый (Доцент)
Русские субтитры: нет
Субтитры: Английские
Режиссёр: Поль Сид (серии 1, 4); Джеми Пейн (серии 2, 3); Джон Ист (серии 5, 6)
В ролях: Алан Армстронг, Аманда Редман, Дэннис Ватерман, Джеймс Болэм, Сьюзэн Джеймисон, Энтони Калф, Натали Форбс, Чике Оконкво, Ханна Ватерман, Хезер Джеймс
Описание: Телевизионный сериал «Новые трюки» рассказывает о работе подразделения ОВНП / UCOS (Unsolved Crime and Open Case Squad – Отряд по расследованию Вновьоткрытых Нераскрытых Преступлений). Отрядом руководит детектив суперинтендант Сара Пулман, а сам отряд состоит из отставных полицейских, которых повторно завербовали для проведения расследований нераскрытых дел. Название сериала происходит от известной пословицы «Старую собаку новым трюкам не обучишь». «Старые собаки» успешно адаптируют их знания и опыт к современным условиям и раскрывают преступления, которые не были раскрыты в течение долгих лет.



Качество: DVDRip
Формат: AVI
Сэмпл: ifolder.ru/25574178
Видео кодек: XviD
Аудио кодек: AC3
Видео: 640x368 (1.74:1), 25 fps, XviD Final 1.0.3 (build 37) ~1477 kbps avg, 0.26 bit/pixel
Аудио #1: 48 kHz, AC3 Dolby Digital, 2/0 (L,R) ch, ~192 kbps (Доцент)
Аудио #2: 48 kHz, AC3 Dolby Digital, 2/0 (L,R) ch, ~192 kbps (Оригинал)
С одной звуковой дорожкой уберется на DVD5.
Серия 1. ОВНП расследует убийство женщины полицейского, которое было возобновлено после обнаружения орудия преступления.
Серия 2. ОВНП проводит расследование подмены оригинальной картины на подделку, которая была совершена в королевском дворце.
Серия 3. ОВНП расследует убийство молодого активиста, участвовавшего в мирном протесте около ядерной базы НАТО в 1984 году. В ходе расследования сотрудники ОВНП понимают, что в убийстве может быть замешан Особый Отдел.
Серия 4. ОВНП расследует убийство ребенка в гольф клубе, произошедшее в 1982 году. Единственный подозреваемый, которого рассматривало изначальное расследование, покончил жизнь самоубийством.
Серия 5. ОВНП расследует давнее дело Браена. Изначальное расследование было связано с исчезновением молодой женщины и ее трехмесячного ребенка. Но, после повторного открытия дела, Браен выясняет, что по соседству исчезли еще две женщины.
Серия 6. ОВНП расследует дело о смерти 17 летней девушки, скончавшейся от голода внутри транспортного контейнера. О смерти девушки узнал Джек, который, надеясь связаться со своей женой Мэри, обратился к медиуму. По странному стечению обстоятельств детективы из группы изначального расследования так же обращались к медиуму.
Общее
Полное имя : D:\Temp\New.Tricks.S01E01.DVDRip.WS.AC3.XviD-SFM.avi
Формат : AVI
Формат/Информация : Audio Video Interleave
Размер файла : 782 Мбайт
Продолжительность : 57 м.
Общий поток : 1903 Кбит/сек
Программа кодирования : VirtualDubMod 1.5.10.2 (build 2540/release)
Библиотека кодирования : VirtualDubMod build 2540/release
Видео
Идентификатор : 0
Формат : MPEG-4 Visual
Профиль формата : Advanced Simple@L5
Параметр BVOP формата : Нет
Параметр QPel формата : Нет
Параметр GMC формата : Без точки перехода
Параметр матрицы формата : Default (H.263)
Идентификатор кодека : XVID
Идентификатор кодека/Подсказка : XviD
Продолжительность : 57 м.
Битрейт : 1505 Кбит/сек
Ширина : 640 пикс.
Высота : 368 пикс.
Соотношение сторон : 16:9
Частота кадров : 25,000 кадр/сек
Цветовое пространство : YUV
Подвыборка цветности : 4:2:0
Битовая глубина : 8 бит
Тип развёртки : Прогрессивная
Метод сжатия : С потерями
Бит/(Пиксели*Кадры) : 0.256
Размер потока : 618 Мбайт (79%)
Библиотека кодирования : XviD 1.0.3 (UTC 2004-12-20)
Аудио #1
Идентификатор : 1
Формат : AC-3
Формат/Информация : Audio Coding 3
Расширение режима : CM (complete main)
Идентификатор кодека : 2000
Продолжительность : 57 м.
Вид битрейта : Постоянный
Битрейт : 192 Кбит/сек
Канал(ы) : 2 канала(ов)
Расположение каналов : Front: L R
Частота : 48,0 КГц
Битовая глубина : 16 бит
Метод сжатия : С потерями
Размер потока : 78,8 Мбайт (10%)
Выравнивание : Разделение по промежуткам
Продолжительность промежутка : 40 мс. (1,00 видеокадр)
Время предзагрузки промежутка : 500 ms
Аудио #2
Идентификатор : 2
Формат : AC-3
Формат/Информация : Audio Coding 3
Расширение режима : CM (complete main)
Идентификатор кодека : 2000
Продолжительность : 57 м.
Вид битрейта : Постоянный
Битрейт : 192 Кбит/сек
Канал(ы) : 2 канала(ов)
Расположение каналов : Front: L R
Частота : 48,0 КГц
Битовая глубина : 16 бит
Метод сжатия : С потерями
Размер потока : 78,8 Мбайт (10%)
Выравнивание : Разделение по промежуткам
Продолжительность промежутка : 40 мс. (1,00 видеокадр)
Время предзагрузки промежутка : 500 ms



Скачать Новые.трюки.New.Tricks.(Полный.1-ый.сезон).(Поль.Сид.Джеми.Пейн.Джон.Ист).[2004.Детектив.драма.DVDRip].[VO].(-Доцент-).+.[original.eng].+.[eng.sub].torrent без регистрации
Золото ЗОЛОТАЯ РАЗДАЧА! СКАЧАННОЕ НЕ ЗАСЧИТЫВАЕТСЯ! Золото
Дата: Зарегистрирован   [ Тип: внутренний ] Как тут cкачать?
MAGNET ссылка
MAGNET ссылка


Скачать .torrent

13 KB

Статус: проверено DHT
Скачан: торрент - 141 раз, раздача полностью - 21 раз
Размер: 4,59 GB
Оценка:  - (Голосов: 0)
Поблагодарили: 0
Поделиться ссылкой на эту раздачу с друзьями:
В контактеFacebookОдноклассникиTwitterLivejournalМой МирLiveinternet
 

 
Показать сообщения:    


Вы не можете начинать темы
Вы не можете отвечать на сообщения
Вы не можете редактировать свои сообщения
Вы не можете удалять свои сообщения
Вы не можете голосовать в опросах
Вы не можете прикреплять файлы к сообщениям
Вы можете скачивать файлы