Loading...
Error

Скачать Новые трюки / New Tricks (Сезон 2, серии 01-05 из 8) (Jon East) [2005, Детектив, драма, DVDRip] [VO] (-Доцент-) + [Original] торрент без регистрации

 
Статистика раздачи
Размер:  3,74 GB   |    Скачан:  142 раза
Сидов:  1  [  0 KB/s  ]  
 
Автор Сообщение

leon030982

[] 

Новые трюки / New Tricks (Сезон 2, серии 01-05 из 8)


Год выпуска: 2005
Страна: Великобритания
Жанр: Детектив, драма
Продолжительность: 00:58:58
Перевод: Одноголосный закадровый (-Доцент-)
Русские субтитры: нет
Субтитры: английские

Режиссёр: Jon East

В ролях: Аманда Редман, Деннис Уотерман, Алан Армстронг, Джеймс Болам

Описание:
Телевизионный сериал «Новые трюки» рассказывает о работе подразделения ОВНП / UCOS (Unsolved Crime and Open Case Squad — Отряд по расследованию Вновьоткрытых Нераскрытых Преступлений). Отрядом руководит детектив суперинтендант Сара Пулман, а сам отряд состоит из отставных полицейских, которых повторно завербовали для проведения расследований нераскрытых дел. Название сериала происходит от известной пословицы «Старую собаку новым трюкам не обучишь». «Старые собаки» успешно адаптируют их знания и опыт к современным условиям и раскрывают преступления, которые не были раскрыты в течение долгих лет.


Сэмпл
Качество: DVDRip
Формат: AVI
Видео кодек: XviD
Аудио кодек: MP3
Видео: XviD, 640x352, 25 fps, 1258 kb/s, 0.223 bit/pixel
Аудио 1: Русский mp3, 2 ch, 224 кб/с, 44 кГц
Аудио 2: Английский mp3, 2 ch, 192 кб/с, 48 кГц
Общее
Полное имя : D:\New.Triks.S02.2005\novye.tryuki.s02e01.avi
Формат : AVI
Формат/Информация : Audio Video Interleave
Размер файла : 712 Мбайт
Продолжительность : 58 м.
Общий поток : 1688 Кбит/сек
Программа кодирования : VirtualDubMod 1.5.10.2 (build 2540/release)
Библиотека кодирования : VirtualDubMod build 2540/release
Видео
Идентификатор : 0
Формат : MPEG-4 Visual
Профиль формата : Advanced Simple@L5
Параметр BVOP формата : 1
Параметр QPel формата : Нет
Параметр GMC формата : Без точки перехода
Параметр матрицы формата : Default (H.263)
Режим смешивания : Сжатый битовый поток
Идентификатор кодека : XVID
Идентификатор кодека/Подсказка : XviD
Продолжительность : 58 м.
Битрейт : 1258 Кбит/сек
Ширина : 640 пикс.
Высота : 352 пикс.
Соотношение сторон : 16:9
Частота кадров : 25,000 кадр/сек
Цветовое пространство : YUV
Подвыборка цветности : 4:2:0
Битовая глубина : 8 бит
Тип развёртки : Прогрессивная
Метод сжатия : С потерями
Бит/(Пиксели*Кадры) : 0.223
Размер потока : 530 Мбайт (74%)
Библиотека кодирования : XviD 1.0.3 (UTC 2004-12-20)
Аудио #1
Идентификатор : 1
Формат : MPEG Audio
Версия формата : Version 1
Профиль формата : Layer 3
Идентификатор кодека : 55
Идентификатор кодека/Подсказка : MP3
Продолжительность : 58 м.
Вид битрейта : Постоянный
Битрейт : 224 Кбит/сек
Канал(ы) : 2 канала(ов)
Частота : 44,1 КГц
Метод сжатия : С потерями
Размер потока : 94,5 Мбайт (13%)
Выравнивание : Разделение по промежуткам
Продолжительность промежутка : 40 мс. (1,00 видеокадр)
Время предзагрузки промежутка : 500 ms
Аудио #2
Идентификатор : 2
Формат : MPEG Audio
Версия формата : Version 1
Профиль формата : Layer 3
Режим : Dual mono
Идентификатор кодека : 55
Идентификатор кодека/Подсказка : MP3
Продолжительность : 58 м.
Вид битрейта : Постоянный
Битрейт : 192 Кбит/сек
Канал(ы) : 2 канала(ов)
Частота : 48,0 КГц
Метод сжатия : С потерями
Размер потока : 81,0 Мбайт (11%)
Выравнивание : Соединение по промежуткам
Продолжительность промежутка : 40 мс. (1,00 видеокадр)
Время предзагрузки промежутка : 504 ms
Внимание! Раздача ведётся путём добавления новых серий; при каждом добавлении создётся новый торрент. Чтобы начать докачку новой серии, пользователям необходимо сделать следующее:
1. остановить скачивание;
2. удалить старый торрент у себя из клиента (старые серии удалять не надо);
3. скачать новый торрент и запустить его у себя в клиенте вместо старого, при этом указать клиенту путь в старую папку куда и должно происходить скачивание новых серий.
Ваш клиент при этом должен произвести хеширование (проверку) старой папки (если не производит сам - помогите ему сделать это), и будет докачивать только те серии которых у вас ещё нет. Старые серии при этом не удаляются, а продолжают раздаваться!
Eсли вы уже удалили старые серии, то предотвратить повторную закачку старых серий можно, отжав галочку в соответсвующих местах при запуске нового торрента.



Скачать Новые.трюки.New.Tricks.(Сезон.2.серии.01-05.из.8).(Jon.East).[2005.Детектив.драма.DVDRip].[VO].(-Доцент-).+.[Original].torrent без регистрации
Золото ЗОЛОТАЯ РАЗДАЧА! СКАЧАННОЕ НЕ ЗАСЧИТЫВАЕТСЯ! Золото
Дата: Зарегистрирован   [ Тип: внутренний ] Как тут cкачать?
MAGNET ссылка
MAGNET ссылка


Скачать .torrent

20 KB

Статус: проверено DHT
Скачан: торрент - 142 раз, раздача полностью - 5 раз
Размер: 3,74 GB
Оценка:  - (Голосов: 0)
Поблагодарили: 0
Поделиться ссылкой на эту раздачу с друзьями:
В контактеFacebookОдноклассникиTwitterLivejournalМой МирLiveinternet
 

 
Показать сообщения:    


Вы не можете начинать темы
Вы не можете отвечать на сообщения
Вы не можете редактировать свои сообщения
Вы не можете удалять свои сообщения
Вы не можете голосовать в опросах
Вы не можете прикреплять файлы к сообщениям
Вы можете скачивать файлы