Loading...
Error

Скачать Заводные / Лихачи / Spetters / (Пол Верховен) [1980, драма, мелодрама, спорт, BDRip-AVC] [AVO] торрент без регистрации

 
Статистика раздачи
Размер:  3,14 GB   |    Скачан:  115 раз

Полного источника не было: 25 минут

 
Автор Сообщение

Marsianka

[] 

Информация о фильме
Название: Заводные / Лихачи
Оригинальное название: Spetters
Год выхода: 1980
Жанр: драма, мелодрама, спорт
Режиссер: Пол Верховен
В ролях: Ханс ван Тонгерен, Рене Саутендейк, Тон Агтерберг, Мартен Спаньер, Марианне Бойер, Петер Тёйнман, Саския Тен Батенбург, Ивонн Валкенбург, Ганс Верман, Китти Курбуа, Джонна Костер, Хьюго Метсерс, Йерун Краббе, Рутгер Хауэр, Теу Боерманс, Труус Деккер, Урсул Де Гир, Бруни Хейнк, Ганс Холткамп, Жан Хопманн, Хенк Ван Хутен, Лоес Лука, Йохан Саймонс, Майк Уэст

О фильме:
Драматическая история одной молодежной компании из небольшого голландского городка, гоняющей на мотоциклах. Каждый из них выбирает свой путь. И этот путь совсем не похож на тот, который им виделся в сладких грезах о будущем.



Страна: Нидерланды, Endemol Entertainment, VSE Film
Продолжительность: 02:02:38
Перевод: Авторский одноголосый (Алексеев)
Дата релиза: 07.12.2012

Файл
Кодек: H.264
Качество: BDRip (AVC) (BDRemux (1080p))
Видео: MPEG-4 AVC, 3468 Кбит/с, 1024x576, 24.000 кадр/с
Звук: AC3, 2 ch, 192 Кбит/с
Общее
Уникальный идентификатор : 247976261802920020010011144852390160455 (0xBA8E7DA5BF2D574D8D6AA1D5BE322847)
Полное имя : G:фильмыZavodnye.1980.x264.BDRip.(AVC).ExKinoRay.mkv
Формат : Matroska
Версия формата : Version 2
Размер файла : 3,14 Гбайт
Продолжительность : 2 ч. 2 м.
Общий поток : 3661 Кбит/сек
Название фильма : Zavodnye.1980.x264.BDRip.(AVC).ExKinoRay
Дата кодирования : UTC 2012-12-07 10:00:25
Программа кодирования : mkvmerge v4.0.0 ('The Stars were mine') сборка от Jun 6 2010 16:18:42
Библиотека кодирования : libebml v1.0.0 + libmatroska v1.0.0

Видео
Идентификатор : 1
Формат : AVC
Формат/Информация : Advanced Video Codec
Профиль формата : High@L4.1
Параметр CABAC формата : Да
Параметр ReFrames формата : 8 кадров
Идентификатор кодека : V_MPEG4/ISO/AVC
Продолжительность : 2 ч. 2 м.
Битрейт : 3468 Кбит/сек
Ширина : 1024 пикселя
Высота : 576 пикселей
Соотношение сторон : 16:9
Частота кадров : 24,000 кадра/сек
Цветовое пространство : YUV
Субдискретизация насыщенности : 4:2:0
Битовая глубина : 8 бит
Тип развёртки : Прогрессивная
Бит/(Пиксели*Кадры) : 0.245
Размер потока : 2,91 Гбайт (93%)
Заголовок : Rip by Enigma-Vladislav71
Библиотека кодирования : x264 core 116 r2074 2641b9e
Настройки программы : cabac=1 / ref=8 / deblock=1:-2:-2 / analyse=0x3:0x133 / me=umh / subme=11 / psy=1 / psy_rd=1.00:0.00 / mixed_ref=1 / me_range=48 / chroma_me=1 / trellis=2 / 8x8dct=1 / cqm=0 / deadzone=21,11 / fast_pskip=0 / chroma_qp_offset=-2 / threads=3 / sliced_threads=0 / nr=0 / decimate=0 / interlaced=0 / bluray_compat=0 / constrained_intra=0 / bframes=8 / b_pyramid=2 / b_adapt=2 / b_bias=0 / direct=3 / weightb=1 / open_gop=0 / weightp=2 / keyint=240 / keyint_min=23 / scenecut=40 / intra_refresh=0 / rc=2pass / mbtree=0 / bitrate=3468 / ratetol=1.0 / qcomp=0.60 / qpmin=10 / qpmax=51 / qpstep=4 / cplxblur=20.0 / qblur=0.5 / ip_ratio=1.40 / pb_ratio=1.30 / aq=2:1.00
Язык : English
Default : Нет
Forced : Нет

Аудио
Идентификатор : 2
Формат : AC-3
Формат/Информация : Audio Coding 3
Расширение режима : CM (complete main)
Идентификатор кодека : A_AC3
Продолжительность : 2 ч. 2 м.
Вид битрейта : Постоянный
Битрейт : 192 Кбит/сек
Каналы : 2 канала
Расположение каналов : Front: L R
Частота : 48,0 КГц
Битовая глубина : 16 бит
Метод сжатия : С потерями
Размер потока : 168 Мбайт (5%)
Язык : Russian
Default : Да
Forced : Нет

Текст
Идентификатор : 3
Формат : UTF-8
Идентификатор кодека : S_TEXT/UTF8
Идентификатор кодека/Информация : UTF-8 Plain Text
Язык : English
Default : Да
Forced : Нет
Семпл Релиз от:

Авторы релиза:



Скачать Заводные.Лихачи.Spetters.(Пол.Верховен).[1980.драма.мелодрама.спорт.BDRip-AVC].[AVO].torrent без регистрации
Золото ЗОЛОТАЯ РАЗДАЧА! СКАЧАННОЕ НЕ ЗАСЧИТЫВАЕТСЯ! Золото
Дата: Зарегистрирован   [ Тип: внутренний ] Как тут cкачать?
MAGNET ссылка
MAGNET ссылка


Скачать .torrent

16 KB

Статус: проверено DHT
Скачан: торрент - 115 раз, раздача полностью - 3 раз
Размер: 3,14 GB
Оценка:  - (Голосов: 0)
Поблагодарили: 0
Поделиться ссылкой на эту раздачу с друзьями:
В контактеFacebookОдноклассникиTwitterLivejournalМой МирLiveinternet
 

 
Показать сообщения:    


Вы не можете начинать темы
Вы не можете отвечать на сообщения
Вы не можете редактировать свои сообщения
Вы не можете удалять свои сообщения
Вы не можете голосовать в опросах
Вы не можете прикреплять файлы к сообщениям
Вы можете скачивать файлы