Loading...
Error

Скачать Хейвен / Haven (Полный 3-ый сезон) (Адам Кэйн) [2012, мистика, драма, детектив, WEB-DLRip-AVC] MVO (BaibaKo) торрент без регистрации

 
Статистика раздачи
Размер:  7,47 GB   |    Скачан:  193 раза
Сидов:  1  [  0 KB/s  ]  
 
Автор Сообщение

leon030982

[] 

Хейвен / Haven
Год выпуска: 2012
Страна: Канада, США
Жанр: мистика, драма, детектив
Продолжительность: 45 минут
Перевод: профессиональный многоголосый закадровый (Baibako)
Оригинальная дорожка: английская
Русские субтитры: нет
Субтитры: нет

Режиссёр: Адам Кэйн

В ролях: Эмили Роуз, Эрик Бальфур, Лукас Брайант, Ричард Донат, Джон Дансуорт

Описание: В маленький город Хэвен приезжает агент ФБР Одри Паркер, чтобы расследовать смерть бывшего преступника. Из-за своего природного любопытства она попала в эпицентр этого необычного анклава, который, оказывается, издавна служил пристанищем для людей со сверхспособностями. Среди местных жителей города полицейский Натан Вурно, который стал напарником Одри, и загадочный и обаятельный мастер на все руки Дюк Крокер.
Сериал основан на рассказе Стивена Кинга «The Colorado Kid».

Дополнительная информация:
Перевод: Татьяна Saavick
Озвучка: Светлана Доманова, Татьяна Оболевич, Александр Фурман и Алексей Кузнецов
Сведение: Baibak
Обложка: tvblog
Особая благодарность Videoripper за помощь в подготовке релиза!

Ссылка на предыдущие и альтернативные раздачи:
Сэмпл
Качество: WEB-DLRip-AVC
Формат: MP4
Видео кодек: H.264
Аудио кодек: AAC
Видео: AVC Main@L3.1 x264 720x400 1536 Кбит/сек 23,976 кадра/сек 0.179 bit/pixel
Аудио: AAC LC 2 канала 48,0 КГц 128 Кбит/сек VBR
Аудио 2: AAC LC 2 канала 48,0 КГц 128 Кбит/сек VBR
специально для
General
Complete name : Haven.s03e01.WEB-DLRip.x264.Rus.Eng.BaibaKo.tv.mp4
Format : MPEG-4
Format profile : Base Media
Codec ID : isom
File size : 568 MiB
Duration : 42mn 39s
Overall bit rate mode : Variable
Overall bit rate : 1 861 Kbps
Encoded date : UTC 2012-09-26 06:02:43
Tagged date : UTC 2012-09-26 06:02:43
Video
ID : 1
Format : AVC
Format/Info : Advanced Video Codec
Format profile : Main@L3.1
Format settings, CABAC : Yes
Format settings, ReFrames : 5 frames
Codec ID : avc1
Codec ID/Info : Advanced Video Coding
Duration : 42mn 39s
Bit rate mode : Variable
Bit rate : 1 536 Kbps
Maximum bit rate : 14.0 Mbps
Width : 720 pixels
Height : 400 pixels
Display aspect ratio : 16:9
Frame rate mode : Constant
Frame rate : 23.976 fps
Color space : YUV
Chroma subsampling : 4:2:0
Bit depth : 8 bits
Scan type : Progressive
Bits/(Pixel*Frame) : 0.222
Stream size : 468 MiB (82%)
Title : Haven S03E01 301 720p WEB-DL DD5 1 H 264-ECI
Writing library : x264 core 125 r2200 999b753
Encoding settings : cabac=1 / ref=5 / deblock=1:-1:-1 / analyse=0x1:0x111 / me=umh / subme=8 / psy=1 / psy_rd=1.00:0.15 / mixed_ref=1 / me_range=16 / chroma_me=1 / trellis=1 / 8x8dct=0 / cqm=0 / deadzone=21,11 / fast_pskip=1 / chroma_qp_offset=-3 / threads=12 / lookahead_threads=2 / sliced_threads=0 / nr=0 / decimate=1 / interlaced=0 / bluray_compat=0 / constrained_intra=0 / bframes=3 / b_pyramid=0 / b_adapt=2 / b_bias=0 / direct=3 / weightb=1 / open_gop=0 / weightp=2 / keyint=240 / keyint_min=24 / scenecut=40 / intra_refresh=0 / rc_lookahead=50 / rc=2pass / mbtree=1 / bitrate=1536 / ratetol=1.0 / qcomp=0.60 / qpmin=0 / qpmax=69 / qpstep=4 / cplxblur=20.0 / qblur=0.5 / vbv_maxrate=14000 / vbv_bufsize=14000 / nal_hrd=vbr / ip_ratio=1.40 / aq=1:1.00
Encoded date : UTC 2012-09-25 21:01:21
Tagged date : UTC 2012-09-26 06:03:58
Audio #1
ID : 2
Format : AAC
Format/Info : Advanced Audio Codec
Format profile : LC
Codec ID : 40
Duration : 42mn 39s
Bit rate mode : Variable
Bit rate : 192 Kbps
Maximum bit rate : 200 Kbps
Channel(s) : 2 channels
Channel positions : Front: L R
Sampling rate : 48.0 KHz
Compression mode : Lossy
Stream size : 58.6 MiB (10%)
Language : Russian
Encoded date : UTC 2012-09-26 06:03:54
Tagged date : UTC 2012-09-26 06:03:58
Audio #2
ID : 3
Format : AAC
Format/Info : Advanced Audio Codec
Format profile : LC
Codec ID : 40
Duration : 42mn 39s
Bit rate mode : Variable
Bit rate : 128 Kbps
Maximum bit rate : 134 Kbps
Channel(s) : 2 channels
Channel positions : Front: L R
Sampling rate : 48.0 KHz
Compression mode : Lossy
Stream size : 39.1 MiB (7%)
Language : English
Encoded date : UTC 2012-09-26 06:03:56
Tagged date : UTC 2012-09-26 06:03:58

1. 301
2. Stay (Питомник)
3. The Farmer (Фермер)
4. Over My Head (Полное погружение)
5. Double Jeopardy (Двойное наказание)
6. Real Estate (Недвижимость)
7. Magic Hour Part 1 (Час чуда ч.1)
8. Magic Hour Part 2 (Час чуда ч.2)
9. Sarah (Сара)
10. Burned (Сожжённые)



Внимание! Раздача ведётся путём добавления новых серий; при каждом добавлении создётся новый торрент. Чтобы начать докачку новой серии, пользователям необходимо сделать следующее:
(1) остановить скачивание,
(2) удалить старый торрент у себя из клиента (старые серии удалять не надо),
(3) скачать новый торрент и запустить его у себя в клиенте вместо старого, при этом указать клиенту путь в старую папку куда и должно происходить скачивание новых серий.
Ваш клиент при этом должен произвести хеширование (проверку) старой папки (если не производит сам - помогите ему сделать это), и будет докачивать только те серии которых у вас ещё нет. Старые серии при этом не удаляются, а продолжают раздаваться!
Eсли вы уже удалили старые серии, то предотвратить повторную закачку старых серий можно, отжав галочку в соответсвующих местах при запуске нового торрента.


Добавлена 1 серия. 26.09.2012 года
Добавлена 2 серия. 07.10.2012 года
Добавлена 3 серия. 11.10.2012 года
Добавлена 4 серия. 18.10.2012 года
Добавлена 5 серия. 28.10.2012 года
Добавлена 6 серия. 04.11.2012 года
Добавлены 7-8 серии. 22.11.2012 года
Добавлена 9 серия. 26.11.2012 года
Добавлена 10 серия. 07.12.2012 года





Скачать Хейвен.Haven.(Полный.3-ый.сезон).(Адам.Кэйн).[2012.мистика.драма.детектив.WEB-DLRip-AVC].MVO.(BaibaKo).torrent без регистрации
Золото ЗОЛОТАЯ РАЗДАЧА! СКАЧАННОЕ НЕ ЗАСЧИТЫВАЕТСЯ! Золото
Дата: Зарегистрирован   [ Тип: внутренний ] Как тут cкачать?
MAGNET ссылка
MAGNET ссылка


Скачать .torrent

39 KB

Статус: проверено DHT
Скачан: торрент - 193 раз, раздача полностью - 94 раз
Размер: 7,47 GB
Оценка:  5 (Голосов: 1)
Поблагодарили: 2
Поделиться ссылкой на эту раздачу с друзьями:
В контактеFacebookОдноклассникиTwitterLivejournalМой МирLiveinternet
 

 
Показать сообщения:    


Вы не можете начинать темы
Вы не можете отвечать на сообщения
Вы не можете редактировать свои сообщения
Вы не можете удалять свои сообщения
Вы не можете голосовать в опросах
Вы не можете прикреплять файлы к сообщениям
Вы можете скачивать файлы