Loading...
Error

Скачать В поле зрения / Person of Interest (Полный 2-ой сезон) (Ричард Дж. Льюис, Дэвид Семел) [2012, триллер, драма, WEB-DL] [1080p] [MVO] (NewStudio) + [MVO] (LostFilm) торрент без регистрации

 
Статистика раздачи
Размер:  40,73 GB   |    Скачан:  202 раза
Сидов:  1  [  0 KB/s  ]  
 
Автор Сообщение

leon030982

[] 

В поле зрения / Подозреваемый/ Person of Interest
Год выпуска: 2012
Страна: США
Жанр: триллер, драма
Продолжительность: ~00:45:00
Перевод: Профессиональный многоголосый закадровый
Субтитры: Russian(michaelemerson.ru), English

Режиссёр: Ричард Дж. Льюис, Дэвид Семел

В ролях: Джеймс Кэвизел, Майкл Эмерсон, Stanislav Shkilnyi, Узиманн, Тараджи П. Хенсон, Кевин Чэпмен, Куртеней Тейлор, Крис Чок, Жермен Кроуфорд, Брайан Д’Арси Джеймс и др.

Описание: Предполагаемо погибший бывший агент ЦРУ Риз объединяется с таинственным миллионером чтобы предотвращать преступления. Подготовка Риза в проведении операций под прикрытием привлекает внимание миллионера Финча, гения-программиста, который изобрел программу, позволяющую предсказывать преступные склонности людей на базе анализа поведения. Используя последние достижения техники, эти двое часто преступают закон, используя навыки Риза и бесконечное богатство Финча, и останавливают преступников еще до совершения преступления. Действия Риза привлекают к себе внимание детектива Картер из отдела убийств и полицейского Фуско, которого Риз использует в своих целях. Риз и Финч понимают, что правильный человек с правильной информацией в нужное время и в нужном месте может изменить все.



Сэмпл
Дорожки №1-2 получены наложением выделенного голоса на центр декодированного AC3 by vlaluk (HDCLUB)
Качество: WEB-DL 1080p
Формат: MKV
Видео кодек: H.264
Аудио кодек: AC3
Видео: AVC, 1920x1080, 23.976 fps, ~5 090 Kbps avg, 0.102 bit/pixel
Аудио Rus: AC3, 48.0 KHz, 6 ch, ~384 Kbps (NewStudio)
Аудио Rus: AC3, 48.0 KHz, 6 ch, ~384 Kbps (LostFilm)
Аудио Eng: AC3, 48.0 KHz, 6 ch, ~384 Kbps
General
Unique ID : 204744737433603288269613190442499943994 (0x9A0866EE93E8C88F991FD6C7A3F3AE3A)
Complete name : E:\video\serials\Person.of.Interest.S02.1080p.WEB.DL.2xRus.Eng\Person.of.Interest.s02e01.1080p.WEB.DL.2xRus.Eng.mkv
Format : Matroska
Format version : Version 2
File size : 1.95 GiB
Duration : 43mn 43s
Overall bit rate : 6 377 Kbps
Movie name : Person.of.Interest.S02E01.1080p.WEB.DL.DD5.1.H.264.KiNGS.mkv 13447
Encoded date : UTC 2012-12-02 18:09:53
Writing application : mkvmerge v5.8.0 ('No Sleep / Pillow') built on Sep 2 2012 15:37:04
Writing library : libebml v1.2.3 + libmatroska v1.3.0
Video
ID : 1
Format : AVC
Format/Info : Advanced Video Codec
Format profile : High@L4.0
Format settings, CABAC : Yes
Format settings, ReFrames : 4 frames
Codec ID : V_MPEG4/ISO/AVC
Duration : 43mn 43s
Bit rate : 5 098 Kbps
Width : 1 920 pixels
Height : 1 080 pixels
Display aspect ratio : 16:9
Frame rate mode : Constant
Frame rate : 23.976 fps
Color space : YUV
Chroma subsampling : 4:2:0
Bit depth : 8 bits
Scan type : Progressive
Bits/(Pixel*Frame) : 0.103
Stream size : 1.56 GiB (80%)
Language : English
Default : Yes
Forced : No
Color primaries : BT.709
Transfer characteristics : BT.709
Matrix coefficients : BT.709
Audio #1
ID : 2
Format : AC-3
Format/Info : Audio Coding 3
Mode extension : CM (complete main)
Format settings, Endianness : Big
Codec ID : A_AC3
Duration : 43mn 43s
Bit rate mode : Constant
Bit rate : 384 Kbps
Channel(s) : 6 channels
Channel positions : Front: L C R, Side: L R, LFE
Sampling rate : 48.0 KHz
Bit depth : 16 bits
Compression mode : Lossy
Stream size : 120 MiB (6%)
Title : NewStudio
Language : Russian
Default : Yes
Forced : No
Audio #2
ID : 3
Format : AC-3
Format/Info : Audio Coding 3
Mode extension : CM (complete main)
Format settings, Endianness : Big
Codec ID : A_AC3
Duration : 43mn 43s
Bit rate mode : Constant
Bit rate : 384 Kbps
Channel(s) : 6 channels
Channel positions : Front: L C R, Side: L R, LFE
Sampling rate : 48.0 KHz
Bit depth : 16 bits
Compression mode : Lossy
Stream size : 120 MiB (6%)
Title : LostFilm
Language : Russian
Default : No
Forced : No
Audio #3
ID : 4
Format : AC-3
Format/Info : Audio Coding 3
Mode extension : CM (complete main)
Format settings, Endianness : Big
Codec ID : A_AC3
Duration : 43mn 43s
Bit rate mode : Constant
Bit rate : 384 Kbps
Channel(s) : 6 channels
Channel positions : Front: L C R, Side: L R, LFE
Sampling rate : 48.0 KHz
Bit depth : 16 bits
Compression mode : Lossy
Stream size : 120 MiB (6%)
Language : English
Default : No
Forced : No
Text #1
ID : 5
Format : UTF-8
Codec ID : S_TEXT/UTF8
Codec ID/Info : UTF-8 Plain Text
Title : michaelemerson.ru
Language : Russian
Default : No
Forced : No
Text #2
ID : 6
Format : UTF-8
Codec ID : S_TEXT/UTF8
Codec ID/Info : UTF-8 Plain Text
Language : English
Default : No
Forced : No
Season 2
S2, Ep1
The Contingency
S2, Ep2
Bad Code
S2, Ep3
Masquerade
S2, Ep4
Triggerman
S2, Ep5
Bury the Lede
S2, Ep6
High Road
S2, Ep7
Critical
S2, Ep8
Til Death
S2, Ep9
Hack
Внимание! Раздача ведётся путём добавления новых серий; при каждом добавлении создётся новый торрент. Чтобы начать докачку новой серии, пользователям необходимо сделать следующее:
(1) остановить скачивание,
(2) удалить старый торрент у себя из клиента (старые серии удалять не надо),
(3) скачать новый торрент и запустить его у себя в клиенте вместо старого, при этом указать клиенту путь в старую папку куда и должно происходить скачивание новых серий.
Ваш клиент при этом должен произвести хеширование (проверку) старой папки (если не производит сам - помогите ему сделать это), и будет докачивать только те серии которых у вас ещё нет. Старые серии при этом не удаляются, а продолжают раздаваться!
Eсли вы уже удалили старые серии, то предотвратить повторную закачку старых серий можно, отжав галочку в соответсвующих местах при запуске нового торрента. По возможности, желательно не удалять старые серии как можно дольше чтобы релизёр не столько продолжал раздавать старые серии, а смог сконцентрироваться на новых.



Скачать В.поле.зрения.Person.of.Interest.(Полный.2-ой.сезон).(Ричард.Дж.Льюис.Дэвид.Семел).[2012.триллер.драма.WEB-DL].[1080p].[MVO].(NewStudio).+.[MVO].(LostFilm).torrent без регистрации
Золото ЗОЛОТАЯ РАЗДАЧА! СКАЧАННОЕ НЕ ЗАСЧИТЫВАЕТСЯ! Золото
Дата: Зарегистрирован   [ Тип: внутренний ] Как тут cкачать?
MAGNET ссылка
MAGNET ссылка


Скачать .torrent

206 KB

Статус: проверено DHT
Скачан: торрент - 202 раз, раздача полностью - 34 раз
Размер: 40,73 GB
Оценка:  - (Голосов: 0)
Поблагодарили: 2
Поделиться ссылкой на эту раздачу с друзьями:
В контактеFacebookОдноклассникиTwitterLivejournalМой МирLiveinternet
 

 

leon030982

[] 

15-я серия az
 

leon030982

[] 

16-я серия az
 

leon030982

[] 

раздача обновлена az
 

leon030982

[] 

обновлено az
 

leon030982

[] 

обновлено az
 
Показать сообщения:    


Вы не можете начинать темы
Вы не можете отвечать на сообщения
Вы не можете редактировать свои сообщения
Вы не можете удалять свои сообщения
Вы не можете голосовать в опросах
Вы не можете прикреплять файлы к сообщениям
Вы можете скачивать файлы