Loading...
Error

/ Bigger Than Life ( ) [1956, , HDRip] [AVO] (. ) + [ENG] + [Sub] (rus, eng)

 
1,45 GB   |    :  122

: 21

 

leon030982

[] 

/ Bigger Than Life


:
:
: 1956
: 01:35:00
: ( ) - [. ]
:
C: Russian, English
: / Nicholas Ray


: , , , . , , , , , , Dee Aaker


: - . , , , . . , , .


: HDRip [BDRip 720p HDClub]
: AVI
: 704x272 (2,58:1), 23.976 /, 1974 /, 0.430 bit/pixel
1: AC-3, 96 /, 1 , 48,0 | AVO
2: AC-3, 96 /, 1 , 48,0 | ENG
: SoftSub (SRT) -

- Diablo
. pirat.. hdclub - denismgn1987, tambov68, gelom, arvideo, ochkarik1, palmeiras, snauts, GRX62, pirat. - denis_mgn_1987, Afavorskij, zeleniydzhan, Kampfer161, , Linnan, SavineX, Letyoha3.


:

General
Complete name : D:\\Bigger.Than.Life.1956\Bigger.Than.Life.1956.HDRip.andre90.avi
Format : AVI
Format/Info : Audio Video Interleave
File size : 1.45 GiB
Duration : 1h 35mn
Overall bit rate : 2 179 Kbps
Writing application : VirtualDubMod 1.5.10.2 (build 2540/release)
Writing library : VirtualDubMod build 2540/release
Video
ID : 0
Format : MPEG-4 Visual
Format profile : Advanced Simple@L5
Format settings, BVOP : 1
Format settings, QPel : No
Format settings, GMC : No warppoints
Format settings, Matrix : Custom
Codec ID : XVID
Codec ID/Hint : XviD
Duration : 1h 35mn
Bit rate : 1 973 Kbps
Width : 704 pixels
Height : 272 pixels
Display aspect ratio : 2.588
Frame rate : 23.976 fps
Color space : YUV
Chroma subsampling : 4:2:0
Bit depth : 8 bits
Scan type : Progressive
Compression mode : Lossy
Bits/(Pixel*Frame) : 0.430
Stream size : 1.31 GiB (91%)
Writing library : XviD 1.2.1 (UTC 2008-12-04)
Audio #1
ID : 1
Format : AC-3
Format/Info : Audio Coding 3
Mode extension : CM (complete main)
Format settings, Endianness : Big
Codec ID : 2000
Duration : 1h 35mn
Bit rate mode : Constant
Bit rate : 96.0 Kbps
Channel(s) : 1 channel
Channel positions : Front: C
Sampling rate : 48.0 KHz
Bit depth : 16 bits
Compression mode : Lossy
Stream size : 65.5 MiB (4%)
Alignment : Split accross interleaves
Interleave, duration : 42 ms (1.00 video frame)
Interleave, preload duration : 500 ms
Title : AVO (.)
Audio #2
ID : 2
Format : AC-3
Format/Info : Audio Coding 3
Mode extension : CM (complete main)
Format settings, Endianness : Big
Codec ID : 2000
Duration : 1h 35mn
Bit rate mode : Constant
Bit rate : 96.0 Kbps
Channel(s) : 1 channel
Channel positions : Front: C
Sampling rate : 48.0 KHz
Bit depth : 16 bits
Compression mode : Lossy
Stream size : 65.5 MiB (4%)
Alignment : Split accross interleaves
Interleave, duration : 42 ms (1.00 video frame)
Interleave, preload duration : 500 ms
Title : English
[align=center]
[/align]



...Bigger.Than.Life.(.).[1956..HDRip].[AVO].(.).+.[ENG].+.[Sub].(rus.eng).torrent
  ! ! 
:   [ : ] c?
MAGNET
MAGNET


.torrent

15 KB

: DHT
: - 122 , - 9
: 1,45 GB
- (: 0)
: 0
:
 FacebookTwitterLivejournal Liveinternet
 

 
: