Loading...
Error

Скачать Человек-комар / Mansquito (Тибор Такач) [2005, ужасы, фантастика, DVDRip] [MVO] торрент без регистрации

 
Статистика раздачи
Размер:  706 MB   |    Скачан:  117 раз
Сидов:  1  [  0 KB/s  ]  
 
Автор Сообщение

Marsianka

[] 




Название: Человек-комар
Оригинальное название: Mansquito
Год выхода: 2005
Жанр: ужасы, фантастика
Режиссер: Тибор Такач/Tibor Tak‘cs
В ролях: Корин Немек, Музетта Вандер, Криста Кэмпбелл, Мэтт Джордан, Патрик Драйкаусс, Джей Бенедик, Иво Тончев, Владимир Николов, Димитер Спасов и другие




В секретной биолаборатории велись эксперименты по созданию антивируса, способного победить редкую африканскую болезнь. Подопытными были преступники, приговоренные к смертной казни. Одного такого заключенного, Рэя Эриксона, привезли в лабораторию, а он взял да и устроил форменный погром и сбежал. Сбежал, правда, уже после того, как подхватил вирус. Поэтому в скором времени Рэй превратился в громадного москита...







Страна: США
Бюджет: $5 000 000
Производитель: Active Entertainment / Nu-Image Films
Продолжительность: 01:26:16
Перевод: Профессиональный (многоголосный, закадровый)

General:
Format : AVI
Format/Info : Audio Video Interleave
File size : 706 MiB
Duration : 1h 26mn
Overall bit rate : 1 144 Kbps
Writing application : VirtualDubModRus 1.5.10.2 (build 2542/release)
Writing library : VirtualDubMod build 2542/release

Video:
ID : 0
Format : MPEG-4 Visual
Format profile : Advanced Simple@L5
Format settings, BVOP : No
Format settings, QPel : No
Format settings, GMC : No warppoints
Format settings, Matrix : Default (H.263)
Codec ID : XVID
Codec ID/Hint : XviD
Duration : 1h 26mn
Bit rate : 1 006 Kbps
Width : 608 pixels
Height : 336 pixels
Display aspect ratio : 16:9
Frame rate : 25.000 fps
Color space : YUV
Chroma subsampling : 4:2:0
Bit depth : 8 bits
Scan type : Progressive
Compression mode : Lossy
Bits/(Pixel*Frame) : 0.197
Stream size : 621 MiB (88%)
Writing library : XviD 1.0.3 (UTC 2004-12-20)

Audio:
ID : 1
Format : MPEG Audio
Format version : Version 1
Format profile : Layer 3
Mode : Joint stereo
Mode extension : MS Stereo
Codec ID : 55
Codec ID/Hint : MP3
Duration : 1h 26mn
Bit rate mode : Constant
Bit rate : 128 Kbps
Channel(s) : 2 channels
Sampling rate : 48.0 KHz
Compression mode : Lossy
Stream size : 79.0 MiB (11%)
Alignment : Aligned on interleaves
Interleave, duration : 40 ms (1.00 video frame)
Interleave, preload duration : 504 ms
Качество видео: DVDRip
Формат видео: Avi
Видео: 608x336 (1.81:1), 25.000 fps, XviD Final 1.0.3 (build 37) ~1006 kbps, 0.20 bit/pixel
Аудио: 48.0 kHz, MPEG Layer 3, 2 channels, 128 kbps





Скачать Человек-комар.Mansquito.(Тибор.Такач).[2005.ужасы.фантастика.DVDRip].[MVO].torrent без регистрации
Золото ЗОЛОТАЯ РАЗДАЧА! СКАЧАННОЕ НЕ ЗАСЧИТЫВАЕТСЯ! Золото
Дата: Зарегистрирован   [ Тип: внутренний ] Как тут cкачать?
MAGNET ссылка
MAGNET ссылка


Скачать .torrent

14 KB

Статус: проверено DHT
Скачан: торрент - 117 раз, раздача полностью - 60 раз
Размер: 706 MB
Оценка:  5 (Голосов: 1)
Поблагодарили: 3
Поделиться ссылкой на эту раздачу с друзьями:
В контактеFacebookОдноклассникиTwitterLivejournalМой МирLiveinternet
 

 
Показать сообщения:    


Вы не можете начинать темы
Вы не можете отвечать на сообщения
Вы не можете редактировать свои сообщения
Вы не можете удалять свои сообщения
Вы не можете голосовать в опросах
Вы не можете прикреплять файлы к сообщениям
Вы можете скачивать файлы