Loading...
Error

Скачать Зуд седьмого года / Семь лет желания / The Seven Year Itch (Билли Уайлдер) [1955, мелодрама, комедия, BDRip] [Dub] (20 Век Фокс СНГ) торрент без регистрации

 
Статистика раздачи
Размер:  1,47 GB   |    Скачан:  111 раз
Сидов:  1  [  0 KB/s  ]  
 
Автор Сообщение

leon030982

[] 

Зуд седьмого года / Семь лет желания / The Seven Year Itch

Год выпуска: 1955
Страна: USA
Жанр: мелодрама, комедия
Продолжительность: 01:44:24
Перевод: Профессиональный (дублированный) [20 Век Фокс СНГ]
Cубтитры: нет
Оригинальная аудиодорожка: нет

Режиссер: Билли Уайлдер / Billy Wilder

В ролях: Мэрилин Монро, Том Юэлл, Эвелин Кийес, Сонни Тафтс, Роберт Штраусс, Оскар Хомолка, Маргарит Чэпман, Виктор Мур, Долорес Роздейл, Дональд МакБрайд

Описание: Книгоиздатель Ричард Шерман женат уже семь лет. Его жена и сын в очередной раз уезжают за город на каникулы. Недолго длится одиночество Ричарда, неожиданно на его балкон падает огромный горшок с томатами, и виной этому соседка с верхнего этажа, белокурая рекламная модель.
Ричард предлагает красотке зайти к нему в гости и что-нибудь выпить. Шикарная блондинка в глубоком декольте, не давая соседу опомниться, появляется в его квартире с бутылкой шампанского в руке...
С этой минуты богатое воображение героя рисует не только сказочные картины завоевания сердца соблазнительной красавицы, но и унизительные сцены разоблачения женой его неверности...



Качество видео: BDRip
Формат видео: AVI
Видео: XviD, 720х280 (2,571), 1616 кб/с, 23,976 кадра/сек
Аудио: AC-3, 48,0 КГц, 2 ch, 384 Кбит/сек
Общее
Полное имя : D:\video.avi
Формат : AVI
Формат/Информация : Audio Video Interleave
Размер файла : 1,47 Гбайт
Продолжительность : 1 ч. 44 м.
Общий поток : 2009 Кбит/сек
Программа кодирования : VirtualDubMod 1.5.10.2 (build 2540/release)
Библиотека кодирования : VirtualDubMod build 2540/release
Видео
Идентификатор : 0
Формат : MPEG-4 Visual
Профиль формата : Advanced Simple@L5
Параметр BVOP формата : 3
Параметр QPel формата : Нет
Параметр GMC формата : Без точки перехода
Параметр матрицы формата : Выборочная
Идентификатор кодека : XVID
Идентификатор кодека/Подсказка : XviD
Продолжительность : 1 ч. 44 м.
Битрейт : 1616 Кбит/сек
Ширина : 720 пикселей
Высота : 280 пикселей
Соотношение сторон : 2,571
Частота кадров : 23,976 кадра/сек
Цветовое пространство : YUV
Субдискретизация насыщенности : 4:2:0
Битовая глубина : 8 бит
Тип развёртки : Прогрессивная
Метод сжатия : С потерями
Бит/(Пиксели*Кадры) : 0.334
Размер потока : 1,18 Гбайт (80%)
Библиотека кодирования : XviD 1.2.0.dev47 (UTC 2006-11-01)
Аудио
Идентификатор : 1
Формат : AC-3
Формат/Информация : Audio Coding 3
Расширение режима : CM (complete main)
Параметр Endianness формата : Big
Идентификатор кодека : 2000
Продолжительность : 1 ч. 44 м.
Вид битрейта : Постоянный
Битрейт : 384 Кбит/сек
Каналы : 2 канала
Расположение каналов : Front: L R
Частота : 48,0 КГц
Битовая глубина : 16 бит
Метод сжатия : С потерями
Размер потока : 287 Мбайт (19%)
Выравнивание : Разделение по промежуткам
Продолжительность промежутка : 42 мс. (1,00 видеокадр)
Время предзагрузки промежутка : 500 мс.



Скачать Зуд.седьмого.года.Семь.лет.желания.The.Seven.Year.Itch.(Билли.Уайлдер).[1955.мелодрама.комедия.BDRip].[Dub].(20.Век.Фокс.СНГ).torrent без регистрации
Золото ЗОЛОТАЯ РАЗДАЧА! СКАЧАННОЕ НЕ ЗАСЧИТЫВАЕТСЯ! Золото
Дата: Зарегистрирован   [ Тип: внутренний ] Как тут cкачать?
MAGNET ссылка
MAGNET ссылка


Скачать .torrent

15 KB

Статус: проверено DHT
Скачан: торрент - 111 раз, раздача полностью - 1 раз
Размер: 1,47 GB
Оценка:  5 (Голосов: 1)
Поблагодарили: 1
Поделиться ссылкой на эту раздачу с друзьями:
В контактеFacebookОдноклассникиTwitterLivejournalМой МирLiveinternet
 

 

ЛАВ76

[] 

поддержите раздачу! спасибо!
 
Показать сообщения:    


Вы не можете начинать темы
Вы не можете отвечать на сообщения
Вы не можете редактировать свои сообщения
Вы не можете удалять свои сообщения
Вы не можете голосовать в опросах
Вы не можете прикреплять файлы к сообщениям
Вы можете скачивать файлы