Loading...
Error

Скачать Несмонтированный фильм / Rough Cut (Чан Хун) [2008, комедия, драма, криминал, DVDRip] [MVO] (GREEN TEA & Jimmy J) торрент без регистрации

 
Статистика раздачи
Размер:  1,27 GB   |    Скачан:  119 раз
Сидов:  1  [  0 KB/s  ]   Личеров:  1  [  0 KB/s  ]  
 
Автор Сообщение

leon030982

[] 

Несмонтированный фильм / Rough Cut

Год выпуска: 2008
Страна: Южная Корея
Жанр: комедия, драма, криминал
Продолжительность: 01:52:47
Перевод: Любительский (многоголосый закадровый) [GREEN TEA & Jimmy J]
Cубтитры: нет
Оригинальная аудиодорожка: нет
Режиссер: Чан Хун / Jang Hoon

В ролях: Со Чжи Соп / So Ji-sub (Каин и Авель, Разворот, Прости, я люблю тебя, Мой самый лучший); Кан Чжи Хван / Kang Ji-hwan (Хон Гиль Дон)

Описание: Ган-Пае благодаря своей жестокости и исполнительности занял почетное место правой руки босса. Когда тот попадает в тюрьму, Ган-Пае должен разобраться с главным свидетелем обвинения, имеющего против босса неоспоримые улики.
Су-та — звезда гангстерских боевиков. Он высокомерен, эгоистичен и не умеет сдерживать эмоции и кулаки. Он попадает в затруднительное положение, после того как отправляет двух коллег по фильму в больницу. Общественность и пресса спустила на него собак, и никто из актеров больше не хочет с ним работать.
Случайно в баре Су-та встречает Ган-Пае. Ган-Пае признается Су-та, что он его давний поклонник и даже когда-то мечтал стать актером. Су-та сначала смеется над ним, но вскоре, не видя другого выхода и подчиняясь внезапному порыву предлагает Ган-Пае сыграть роль его противника в фильме. Тот соглашается, но с одним условием: все сцены драк они будут снимать по-настоящему. Довольный сделкой Су-та не подозревает, что это условие может кардинально изменить изначальный сценарий фильма.


Релиз-группа "GREEN TEA" и Jimmy J
Постер: dusy78
Перевод: terra
Редакция под озвучку: Fi.Re.
Роли озвучивают: Fi.Re, Jimmy J, Ульяна Громова


Рип: WithPa

Сэмпл: http://multi-up.com/802267
Качество видео: DVDRip
Формат видео: AVI
Видео: XviD, 1405 Кбит/с, 720x400, 23.976 fps
Аудио: MP3, 2 ch, 192 Кбит/с, 48000 Hz
General
Complete name : D:\торренты\[GREEN TEA] Rough Cut.avi
Format : AVI
Format/Info : Audio Video Interleave
File size : 1.27 GiB
Duration : 1h 52mn
Overall bit rate : 1 606 Kbps
Writing application : VirtualDubMod 1.5.10.2 (build 2540/release)
Writing library : VirtualDubMod build 2540/release
Video
ID : 0
Format : MPEG-4 Visual
Format profile : Advanced Simple@L5
Format settings, BVOP : 2
Format settings, QPel : No
Format settings, GMC : No warppoints
Format settings, Matrix : Default (MPEG)
Muxing mode : Packed bitstream
Codec ID : XVID
Codec ID/Hint : XviD
Duration : 1h 52mn
Bit rate : 1 405 Kbps
Width : 720 pixels
Height : 400 pixels
Display aspect ratio : 16:9
Frame rate : 23.976 fps
Color space : YUV
Chroma subsampling : 4:2:0
Bit depth : 8 bits
Scan type : Progressive
Compression mode : Lossy
Bits/(Pixel*Frame) : 0.203
Stream size : 1.11 GiB (87%)
Writing library : XviD 64
Audio
ID : 1
Format : MPEG Audio
Format version : Version 1
Format profile : Layer 3
Mode : Joint stereo
Mode extension : MS Stereo
Codec ID : 55
Codec ID/Hint : MP3
Duration : 1h 52mn
Bit rate mode : Constant
Bit rate : 192 Kbps
Channel(s) : 2 channels
Sampling rate : 48.0 KHz
Compression mode : Lossy
Stream size : 155 MiB (12%)
Alignment : Aligned on interleaves
Interleave, duration : 42 ms (1.00 video frame)
Interleave, preload duration : 504 ms
Writing library : LAME3.98r
Encoding settings : -m j -V 4 -q 0 -lowpass 18.6 -b 192



Скачать Несмонтированный.фильм.Rough.Cut.(Чан.Хун).[2008.комедия.драма.криминал.DVDRip].[MVO].(GREEN.TEA.&.Jimmy.J).torrent без регистрации
Золото ЗОЛОТАЯ РАЗДАЧА! СКАЧАННОЕ НЕ ЗАСЧИТЫВАЕТСЯ! Золото
Дата: Зарегистрирован   [ Тип: внутренний ] Как тут cкачать?
MAGNET ссылка
MAGNET ссылка


Скачать .torrent

13 KB

Статус: проверено DHT
Скачан: торрент - 119 раз, раздача полностью - 2 раз
Размер: 1,27 GB
Оценка:  - (Голосов: 0)
Поблагодарили: 2
Поделиться ссылкой на эту раздачу с друзьями:
В контактеFacebookОдноклассникиTwitterLivejournalМой МирLiveinternet
 

 
Показать сообщения:    


Вы не можете начинать темы
Вы не можете отвечать на сообщения
Вы не можете редактировать свои сообщения
Вы не можете удалять свои сообщения
Вы не можете голосовать в опросах
Вы не можете прикреплять файлы к сообщениям
Вы можете скачивать файлы