Loading...
Error

Скачать Титаник: Кровь и сталь / Titanic: Blood and Steel (Сезон 1, серии 01-12 из 12) (Киаран Доннелли) [2012, драма, история, BDRip] [1080p] [MVO] (BaibaKo) торрент без регистрации

 
Статистика раздачи
Размер:  43,64 GB   |    Скачан:  141 раз

Полного источника не было: 22 минуты

 
Автор Сообщение

leon030982

[] 

Титаник: Кровь и сталь / Titanic: Blood and Steel (Сезон 1, серии 01-09 из 12)

Год выпуска: 2012
Страна: Ирландия, Италия, Франция, Канада, Великобритания, Испания
Жанр: драма, история
Продолжительность: 55 минут
Перевод: профессиональный многоголосый закадровый (Baibako)
Оригинальная дорожка: английская
Русские субтитры: нет
Субтитры: нет

Режиссёр: Киаран Доннелли

В ролях: Кевин Зегерс, Алессандра Мастронарди, Дерек Джекоби, Билли Картер, Массимо Гини, Валентина Корти, Герард МакКарти, Йен МакЭлхинни, Мартин МакКанн, Джонатан Форбс

Описание: Главные действующие лица сериала - создатели лайнера, заранее прозванного "непотопляемым". Они вынуждены работать в атмосфере политического и финансового давления. Это и владелец компании Harland & Wolff, со стапелей которой и сошел обреченный «четырехтрубник», и финансист Джей Пи Морган, и множество простых и не очень простых рабочих. Тему первого плавания «Титаника» взялась освещать привлекательная журналистка, у которой есть свои причины оказаться на борту.

Доп. информация:
Перевод: Мистер Коулсон
Озвучка: Лира Грим, Ольга Мотрич, Сергей Корчак, Олекса Мельник и Виталий Ткаченко
Сведение: Павел Дежин


Сэмпл
Качество: BDRip (1080p) (Blu-Ray (1080р))
Формат: MKV
Видео кодек: H.264
Аудио кодек: AC3, DTS
Видео: AVC High@L4.0 1920x1080 6500 Кбит/сек 23,976 кадра/сек 0.20 Bits/Pixel
Аудио: rus: AC3 6 каналов 48,0 КГц 384 Кбит/сек CBR
Аудио 2: eng: DTS 6 каналов 48,0 КГц 1510 Кбит/сек CBR
Аудио 3: deu: DTS 6 каналов 48,0 КГц 1510 Кбит/сек CBR
Релиз:
General
Unique ID : 213885527833940503356754487064781288803 (0xA0E8DAB19CB28E5B9415916FF35A7563)
Complete name : Titanic.Blood.and.Steel.2012.s01e01.HD1080p.BluRay.Rus.Eng.Ger.BaibaKo.tv.mkv
Format : Matroska
Format version : Version 2
File size : 3.65 GiB
Duration : 54mn 18s
Overall bit rate : 9 628 Kbps
Movie name : BaibaKo.tv presents - Титаник: кровь и сталь 1х01
Encoded date : UTC 2012-10-26 02:18:12
Writing application : mkvmerge v5.4.0 ('Piper') built on Mar 10 2012 13:34:39
Writing library : libebml v1.2.3 + libmatroska v1.3.0
Video
ID : 1
Format : AVC
Format/Info : Advanced Video Codec
Format profile : High@L4.1
Format settings, CABAC : Yes
Format settings, ReFrames : 4 frames
Codec ID : V_MPEG4/ISO/AVC
Duration : 54mn 18s
Bit rate : 6 033 Kbps
Width : 1 920 pixels
Height : 1 080 pixels
Display aspect ratio : 16:9
Frame rate : 23.976 fps
Color space : YUV
Chroma subsampling : 4:2:0
Bit depth : 8 bits
Scan type : Progressive
Bits/(Pixel*Frame) : 0.121
Stream size : 2.29 GiB (63%)
Writing library : x264 core 125 r2208 d9d2288
Encoding settings : cabac=1 / ref=4 / deblock=1:-3:-3 / analyse=0x3:0x133 / me=umh / subme=7 / psy=1 / psy_rd=1.00:0.00 / mixed_ref=1 / me_range=16 / chroma_me=1 / trellis=1 / 8x8dct=1 / cqm=0 / deadzone=21,11 / fast_pskip=0 / chroma_qp_offset=-1 / threads=12 / lookahead_threads=2 / sliced_threads=0 / nr=0 / decimate=1 / interlaced=0 / bluray_compat=0 / constrained_intra=0 / bframes=3 / b_pyramid=2 / b_adapt=1 / b_bias=0 / direct=3 / weightb=1 / open_gop=0 / weightp=2 / keyint=240 / keyint_min=23 / scenecut=40 / intra_refresh=0 / rc_lookahead=40 / rc=crf / mbtree=1 / crf=20.0 / qcomp=0.60 / qpmin=10 / qpmax=51 / qpstep=4 / ip_ratio=1.40 / aq=1:1.00
Default : Yes
Forced : No
Audio #1
ID : 2
Format : AC-3
Format/Info : Audio Coding 3
Mode extension : CM (complete main)
Format settings, Endianness : Big
Codec ID : A_AC3
Duration : 54mn 18s
Bit rate mode : Constant
Bit rate : 384 Kbps
Channel(s) : 6 channels
Channel positions : Front: L C R, Side: L R, LFE
Sampling rate : 48.0 KHz
Bit depth : 16 bits
Compression mode : Lossy
Stream size : 149 MiB (4%)
Title : Rus BaibaKo.tv DD5.1
Language : Russian
Default : Yes
Forced : No
Audio #2
ID : 3
Format : DTS
Format/Info : Digital Theater Systems
Codec ID : A_DTS
Duration : 54mn 18s
Bit rate mode : Constant
Bit rate : 1 510 Kbps
Channel(s) : 6 channels
Channel positions : Front: L C R, Side: L R, LFE
Sampling rate : 48.0 KHz
Bit depth : 24 bits
Compression mode : Lossy
Stream size : 586 MiB (16%)
Title : Eng DTS 5.1
Language : English
Default : No
Forced : No
Audio #3
ID : 4
Format : DTS
Format/Info : Digital Theater Systems
Codec ID : A_DTS
Duration : 54mn 18s
Bit rate mode : Constant
Bit rate : 1 510 Kbps
Channel(s) : 6 channels
Channel positions : Front: L C R, Side: L R, LFE
Sampling rate : 48.0 KHz
Bit depth : 24 bits
Compression mode : Lossy
Stream size : 586 MiB (16%)
Title : Ger DTS 5.1
Language : German
Default : No
Forced : No


Внимание! Раздача ведётся путём добавления новых серий; при каждом добавлении создётся новый торрент. Чтобы начать докачку новой серии, пользователям необходимо сделать следующее:
(1) остановить скачивание,
(2) удалить старый торрент у себя из клиента (старые серии удалять не надо),
(3) скачать новый торрент и запустить его у себя в клиенте вместо старого, при этом указать клиенту путь в старую папку куда и должно происходить скачивание новых серий.
Ваш клиент при этом должен произвести хеширование (проверку) старой папки (если не производит сам - помогите ему сделать это), и будет докачивать только те серии которых у вас ещё нет. Старые серии при этом не удаляются, а продолжают раздаваться!
Eсли вы уже удалили старые серии, то предотвратить повторную закачку старых серий можно, отжав галочку в соответсвующих местах при запуске нового торрента.





Скачать Титаник.Кровь.и.сталь.Titanic.Blood.and.Steel.(Сезон.1.серии.01-12.из.12).(Киаран.Доннелли).[2012.драма.история.BDRip].[1080p].[MVO].(BaibaKo).torrent без регистрации
Золото ЗОЛОТАЯ РАЗДАЧА! СКАЧАННОЕ НЕ ЗАСЧИТЫВАЕТСЯ! Золото
Дата: Зарегистрирован   [ Тип: внутренний ] Как тут cкачать?
MAGNET ссылка
MAGNET ссылка


Скачать .torrent

57 KB

Статус: проверено DHT
Скачан: торрент - 141 раз, раздача полностью - 0 раз
Размер: 43,64 GB
Оценка:  5 (Голосов: 1)
Поблагодарили: 3
Поделиться ссылкой на эту раздачу с друзьями:
В контактеFacebookОдноклассникиTwitterLivejournalМой МирLiveinternet
 

 

leon030982

[] 

9-я серия ay az
 

leon030982

[] 

обновлено az
 

leon030982

[] 

добавлены финальные серии сезона az
 
Показать сообщения:    


Вы не можете начинать темы
Вы не можете отвечать на сообщения
Вы не можете редактировать свои сообщения
Вы не можете удалять свои сообщения
Вы не можете голосовать в опросах
Вы не можете прикреплять файлы к сообщениям
Вы можете скачивать файлы