Loading...
Error

Скачать Свирепые создания / Fierce Creatures (Фред Скеписи, Роберт Янг) [1997, Комедия, HDTVRip] [MVO] + [Original Eng] торрент без регистрации

 
Статистика раздачи
Размер:  1,5 GB   |    Скачан:  5360 раз
Сидов:  1  [  0 KB/s  ]  
 
Автор Сообщение

leon030982

[] 

Свирепые создания / Fierce Creatures


Год выпуска: 1997
Страна: Великобритания, США
Жанр: Комедия
Продолжительность: 1:33:02
Перевод: Профессиональный (многоголосый закадровый) Первый канал
Cубтитры: нет
Оригинальная аудиодорожка: английский

Режиссер: Фред Скеписи / Fred Schepisi, Роберт Янг / Robert Young

В ролях: Джон Клиз, Джейми Ли Кертис, Кевин Клайн, Роберт Линдсэй, Майкл Пэлин, Ронни Корбетт, Кэри Лоуэлл, Билле Браун, Дерек Гриффитс, Синтия Клиз, Ричард Райдингс, Мария Аиткен, Майкл Персивал, Фред Эванс, Лиза Хоган, Тим Поттер, Дженни Гэлловэй, Шон Френсис, Джули Саундерс, Сьюзи Блейк, Пэт Кин, Дэнис Лилл, Гарет Хант, Рон Донак

Описание: Огромная корпорация Octopus Inc. во главе с проницательным и жестоким магнатом Родом Маккейном покупает находящийся в Великобритании развлекательный центр и недавно закрывшийся Зоопарк. Новый владелец нанимает менеджера, Ролло Ли, который быстро придумывает способ извлечения прибыли - необходимо покончить со всеми животными, за исключением свирепых. Эти кардинальные меры потрясают служащих зоопарка, которые срочно начинают придумывать, как спасти зверей и обмануть жестоких хозяев.

Доп. информация: Работа со звуком alex7691
Сэмпл: http://multi-up.com/802453
Качество видео: HDTVRip
Формат видео: AVI
Видео: XviD build 50, 720x304 (2.37:1), 23.976 fps, 1668 kbps avg
Аудио: Russian AC3 Dolby Digital, 48 kHz, 2/0 (L,R) ch, 192.00 kbps avg
Аудио 2: English AC3 Dolby Digital, 3/2 (L,C,R,l,r) + LFE ch, ~448 kbps avg
General
Complete name : D:\Fierce Creatures_1997\Fierce Creatures_1997.avi
Format : AVI
Format/Info : Audio Video Interleave
File size : 1.50 GiB
Duration : 1h 33mn
Overall bit rate : 2 308 Kbps
Movie name : Свирепые создания
Director : derdevil13
Writing application : VirtualDubModRus 1.5.10.2 (build 2542/release)
Writing library : VirtualDubMod build 2542/release
Video
ID : 0
Format : MPEG-4 Visual
Format profile : Advanced Simple@L5
Format settings, BVOP : 1
Format settings, QPel : No
Format settings, GMC : No warppoints
Format settings, Matrix : Custom
Codec ID : XVID
Codec ID/Hint : XviD
Duration : 1h 33mn
Bit rate : 1 654 Kbps
Width : 720 pixels
Height : 304 pixels
Display aspect ratio : 2.35:1
Frame rate : 23.976 fps
Color space : YUV
Chroma subsampling : 4:2:0
Bit depth : 8 bits
Scan type : Progressive
Compression mode : Lossy
Bits/(Pixel*Frame) : 0.315
Stream size : 1.07 GiB (72%)
Writing library : XviD 1.2.1 (UTC 2008-12-04)
Audio #1
ID : 1
Format : AC-3
Format/Info : Audio Coding 3
Mode extension : CM (complete main)
Format settings, Endianness : Big
Codec ID : 2000
Duration : 1h 33mn
Bit rate mode : Constant
Bit rate : 192 Kbps
Channel(s) : 2 channels
Channel positions : Front: L R
Sampling rate : 48.0 KHz
Bit depth : 16 bits
Compression mode : Lossy
Stream size : 128 MiB (8%)
Alignment : Split accross interleaves
Interleave, duration : 42 ms (1.00 video frame)
Interleave, preload duration : 500 ms
Audio #2
ID : 2
Format : AC-3
Format/Info : Audio Coding 3
Mode extension : CM (complete main)
Format settings, Endianness : Big
Codec ID : 2000
Duration : 1h 33mn
Bit rate mode : Constant
Bit rate : 448 Kbps
Channel(s) : 6 channels
Channel positions : Front: L C R, Side: L R, LFE
Sampling rate : 48.0 KHz
Bit depth : 16 bits
Compression mode : Lossy
Delay relative to video : 230ms
Stream size : 298 MiB (19%)
Alignment : Split accross interleaves
Interleave, duration : 42 ms (1.00 video frame)
Interleave, preload duration : 500 ms



Скачать Свирепые.создания.Fierce.Creatures.(Фред.Скеписи.Роберт.Янг).[1997.Комедия.HDTVRip].[MVO].+.[Original.Eng].torrent без регистрации
Золото ЗОЛОТАЯ РАЗДАЧА! СКАЧАННОЕ НЕ ЗАСЧИТЫВАЕТСЯ! Золото
Дата: Зарегистрирован   [ Тип: внутренний ] Как тут cкачать?
MAGNET ссылка
MAGNET ссылка


Скачать .torrent

15 KB

Статус: проверено DHT
Скачан: торрент - 5360 раз, раздача полностью - 37 раз
Размер: 1,5 GB
Оценка:  5 (Голосов: 1)
Поблагодарили: 2
Поделиться ссылкой на эту раздачу с друзьями:
В контактеFacebookОдноклассникиTwitterLivejournalМой МирLiveinternet
 

 
Показать сообщения:    


Вы не можете начинать темы
Вы не можете отвечать на сообщения
Вы не можете редактировать свои сообщения
Вы не можете удалять свои сообщения
Вы не можете голосовать в опросах
Вы не можете прикреплять файлы к сообщениям
Вы можете скачивать файлы