Loading...
Error

Скачать Бой тигра с драконом / MATCH OF DRAGON AND TIGER (The Dragon and Tiger) (Яоу Гун Ян) [1974, Карате, боевик, драма, VHSRip] [AVO] (Михалев) торрент без регистрации

 
Статистика раздачи
Размер:  1,7 GB   |    Скачан:  1363 раза
Сидов:  1  [  0 KB/s  ]  
 
Автор Сообщение

leon030982

[] 

Бой тигра с драконом / MATCH OF DRAGON AND TIGER (The Dragon and Tiger)


Год выпуска: 1974
Страна: Тайвань
Жанр: Карате, боевик, драма
Продолжительность: 01:28:53
Перевод: Авторский (одноголосый закадровый) Михалев
Cубтитры: нет

Режиссер: Яоу Гун Ян / Yau Goon Yan

В ролях: Ю Тьен Люнг, Танг Мей Фонг , Лей Минг, Лау Лай Лай

Описание: Ко Тянь Люнг возвращается в родной город, чтобы отомстить за убийство своих родителей, задача, к которой он готовил себя 20 лет изучая боевые искусства. Но когда он устранил подручных самого главного врага, он может заколебаться в своем стремлении устранить босса, потому что он влюбляется в дочь своего заклятого врага. Сможет ли он теперь отомстить за убийство его родителей сполна ...?

Сэмпл: http://multi-up.com/802494
Качество видео: VHSRip
Формат видео: AVI
Видео: Xvid 720x480 25.00fps, 2 343 Kbps
Аудио: Dolby AC3 48000Hz stereo 192kbps
Аудио 2: Dolby AC3 44100Hz stereo 191kbps
Фильм так же имеет несколько английских названий:
Blood Avenger
Bamboo Brotherhood
Match for Tiger and Dragon
The Dragon's Executioner
....
Исходник практически нигде не найти, поэтому связался через youtube с пользователем whitetigerny и он мне переслал авишку двд-вхс-рип.
А Николайс е-180 любезно предоставил Двд-вхс с Алексеем Михалевым, за что ему ОГРОМНОЕ СПАСИБО!!!
Фильм скорее всего будет интересен любителям карате и коллекционерам творчества Алексея Михалева, картинка всё таки явно не ахти что-бы насладиться Кия-хия драками )))
Здесь сравнение с ави и двд вхс рип
Format : AVI
Format/Info : Audio Video Interleave
File size : 1.70 GiB
Duration : 1h 28mn
Overall bit rate : 2 741 Kbps
Writing application : VirtualDubMod 1.5.10.2 (build 2542/release)
Writing library : VirtualDubMod build 2542/release
Video
ID : 0
Format : MPEG-4 Visual
Format profile : Simple@L1
Format settings, BVOP : No
Format settings, QPel : No
Format settings, GMC : No warppoints
Format settings, Matrix : Default (H.263)
Codec ID : XVID
Codec ID/Hint : XviD
Duration : 1h 28mn
Bit rate : 2 343 Kbps
Width : 720 pixels
Height : 480 pixels
Display aspect ratio : 3:2
Frame rate : 25.000 fps
Standard : NTSC
Color space : YUV
Chroma subsampling : 4:2:0
Bit depth : 8 bits
Scan type : Progressive
Compression mode : Lossy
Bits/(Pixel*Frame) : 0.271
Stream size : 1.45 GiB (85%)
Writing library : Lavc54.27.100
Audio #1
ID : 1
Format : AC-3
Format/Info : Audio Coding 3
Mode extension : CM (complete main)
Codec ID : 2000
Duration : 1h 28mn
Bit rate mode : Constant
Bit rate : 192 Kbps
Channel(s) : 2 channels
Channel positions : Front: L R
Sampling rate : 48.0 KHz
Bit depth : 16 bits
Compression mode : Lossy
Stream size : 122 MiB (7%)
Alignment : Split accross interleaves
Interleave, duration : 40 ms (1.00 video frame)
Interleave, preload duration : 500 ms
Title : Михалев
Audio #2
ID : 2
Format : AC-3
Format/Info : Audio Coding 3
Mode extension : CM (complete main)
Codec ID : 2000
Duration : 1h 28mn
Bit rate mode : Constant
Bit rate : 192 Kbps
Channel(s) : 2 channels
Channel positions : Front: L R
Sampling rate : 44.1 KHz
Bit depth : 16 bits
Compression mode : Lossy
Delay relative to video : 35ms
Stream size : 122 MiB (7%)
Alignment : Split accross interleaves
Interleave, duration : 40 ms (1.00 video frame)
Interleave, preload duration : 500 ms
Title : English



Скачать Бой.тигра.с.драконом.MATCH.OF.DRAGON.AND.TIGER.(The.Dragon.and.Tiger).(Яоу.Гун.Ян).[1974.Карате.боевик.драма.VHSRip].[AVO].(Михалев).torrent без регистрации
Золото ЗОЛОТАЯ РАЗДАЧА! СКАЧАННОЕ НЕ ЗАСЧИТЫВАЕТСЯ! Золото
Дата: Зарегистрирован   [ Тип: внутренний ] Как тут cкачать?
MAGNET ссылка
MAGNET ссылка


Скачать .torrent

69 KB

Статус: проверено DHT
Скачан: торрент - 1363 раз, раздача полностью - 7 раз
Размер: 1,7 GB
Оценка:  - (Голосов: 0)
Поблагодарили: 0
Поделиться ссылкой на эту раздачу с друзьями:
В контактеFacebookОдноклассникиTwitterLivejournalМой МирLiveinternet
 

 
Показать сообщения:    


Вы не можете начинать темы
Вы не можете отвечать на сообщения
Вы не можете редактировать свои сообщения
Вы не можете удалять свои сообщения
Вы не можете голосовать в опросах
Вы не можете прикреплять файлы к сообщениям
Вы можете скачивать файлы