Loading...
Error

Скачать Казино / Casino (Мартин Скорсезе) [1995, криминальная драма, BDRip-AVC] 4x[AVO] (Гаврилов, Карцев, Живов, Визгунов) торрент без регистрации

 
Статистика раздачи
Размер:  4,16 GB   |    Скачан:  180 раз
Сидов:  1  [  0 KB/s  ]  
 
Автор Сообщение

leon030982

[] 

Казино / Casino


Год выпуска: 1995
Страна: США
Жанр: криминальная драма
Продолжительность: 02:58:20
Перевод 1: Авторский (одноголосый закадровый) [Гаврилов]
Перевод 2: Авторский (одноголосый закадровый)[Карцев ]
Перевод 3: Авторский (одноголосый закадровый)[Живов]
Перевод 4: Авторский (одноголосый закадровый)[Визгунов]
Cубтитры: нет

Режиссер: Мартин Скорсезе / Martin Scorsese

В ролях: Роберт Де Ниро, Шэрон Стоун, Джо Пеши, Джеймс Вудс, Фрэнк Винсент, Паскуале Кайано, Кевин Поллак, Дон Риклз, Винни Велла, Алан Кинг

Описание: Казалось бы, можно ли снять культовый фильм про итальянскую мафию после "Крестного отца" Копполо? "Можно" - подумал Скорсезе, и снял. Итак, фильм про итальянскую мафию, открывшую игорный бизнес в Лас-Вегасе (похоже, правда?) и что из этого вышло...


Качество видео: BDRip-AVC
Формат видео: MKV
Видео: 1024x432 (2.35:1), 23,976 fps, AVC (H.264) ~1800 kbps avg
Аудио 1: 48 kHz, AC3 Dolby Digital, Front: L C R, Side: L R, LFE, 448 Kbps [Гаврилов]
Аудио 2: 48 kHz, AC3 Dolby Digital, Front: L C R, Side: L R, LFE, 448 Kbps [Карцев]
Аудио 3: 48 kHz, AC3 Dolby Digital, Front: L C R, Side: L R, LFE, 448 Kbps [Живов]
Аудио 4: 48 kHz, AC3 Dolby Digital, 2/0 (L,R) ch, ~192 kbps [Визгунов]
General
Complete name :CASINO.1995(4AVO, BDRip).mkv
Format : Matroska
File size : 4.16 GiB
Duration : 2h 58mn
Overall bit rate : 3 336 Kbps
Encoded date : UTC 2011-08-12 09:55:18
Writing application : mkvmerge v3.0.0 ('Hang up your Hang-Ups') built on Dec 15 2009 20:49:37
Writing library : libebml v0.7.9 + libmatroska v0.8.1
Video
ID : 1
Format : AVC
Format/Info : Advanced Video Codec
Format profile : High@L3.2
Format settings, CABAC : Yes
Format settings, ReFrames : 11 frames
Muxing mode : Container profile=Unknown@3.2
Codec ID : V_MPEG4/ISO/AVC
Duration : 2h 58mn
Bit rate : 1 800 Kbps
Width : 1 024 pixels
Height : 432 pixels
Display aspect ratio : 2.35:1
Frame rate : 23.976 fps
Color space : YUV
Chroma subsampling : 4:2:0
Bit depth : 8 bits
Scan type : Progressive
Bits/(Pixel*Frame) : 0.170
Stream size : 2.16 GiB (52%)
Writing library : x264 core 79 r1342kMod e8501ef
Audio #1
ID : 2
Format : AC-3
Format/Info : Audio Coding 3
Mode extension : CM (complete main)
Codec ID : A_AC3
Duration : 2h 58mn
Bit rate mode : Constant
Bit rate : 448 Kbps
Channel(s) : 6 channels
Channel positions : Front: L C R, Side: L R, LFE
Sampling rate : 48.0 KHz
Bit depth : 16 bits
Stream size : 572 MiB (13%)
Title : Гаврилов
Language : Russian
Audio #2
ID : 3
Format : AC-3
Format/Info : Audio Coding 3
Mode extension : CM (complete main)
Codec ID : A_AC3
Duration : 2h 58mn
Bit rate mode : Constant
Bit rate : 448 Kbps
Channel(s) : 6 channels
Channel positions : Front: L C R, Side: L R, LFE
Sampling rate : 48.0 KHz
Bit depth : 16 bits
Stream size : 572 MiB (13%)
Title : Карцев
Language : Russian
Audio #3
ID : 4
Format : AC-3
Format/Info : Audio Coding 3
Mode extension : CM (complete main)
Codec ID : A_AC3
Duration : 2h 58mn
Bit rate mode : Constant
Bit rate : 448 Kbps
Channel(s) : 6 channels
Channel positions : Front: L C R, Side: L R, LFE
Sampling rate : 48.0 KHz
Bit depth : 16 bits
Stream size : 572 MiB (13%)
Title : Живов
Language : Russian
Audio #4
ID : 5
Format : AC-3
Format/Info : Audio Coding 3
Mode extension : CM (complete main)
Codec ID : A_AC3
Duration : 2h 58mn
Bit rate mode : Constant
Bit rate : 192 Kbps
Channel(s) : 2 channels
Channel positions : Front: L R
Sampling rate : 48.0 KHz
Bit depth : 16 bits
Stream size : 245 MiB (6%)
Title : Визгунов
Language : Russian



Скачать Казино.Casino.(Мартин.Скорсезе).[1995.криминальная.драма.BDRip-AVC].4x[AVO].(Гаврилов.Карцев.Живов.Визгунов).torrent без регистрации
Золото ЗОЛОТАЯ РАЗДАЧА! СКАЧАННОЕ НЕ ЗАСЧИТЫВАЕТСЯ! Золото
Дата: Зарегистрирован   [ Тип: внутренний ] Как тут cкачать?
MAGNET ссылка
MAGNET ссылка


Скачать .torrent

21 KB

Статус: проверено DHT
Скачан: торрент - 180 раз, раздача полностью - 15 раз
Размер: 4,16 GB
Оценка:  - (Голосов: 0)
Поблагодарили: 3
Поделиться ссылкой на эту раздачу с друзьями:
В контактеFacebookОдноклассникиTwitterLivejournalМой МирLiveinternet
 

 
Показать сообщения:    


Вы не можете начинать темы
Вы не можете отвечать на сообщения
Вы не можете редактировать свои сообщения
Вы не можете удалять свои сообщения
Вы не можете голосовать в опросах
Вы не можете прикреплять файлы к сообщениям
Вы можете скачивать файлы