Loading...
Error

Скачать Подразделение 1 / Первая группа / Rejseholdet / Unit One (03х01-06 из 07) (Нильс Арден Оплев, Оле Кристиан Мадсен, Янник Йохансен) [2002, триллер, драма, криминал, DVDRip] [MVO (Baibako)] торрент без регистрации

 
Статистика раздачи
Размер:  4,48 GB   |    Скачан:  130 раз
Сидов:  1  [  0 KB/s  ]  
 
Автор Сообщение

МихаНЕзатор

[] 

Название: Подразделение 1 / Первая группа
Оригинальное название: Rejseholdet / Unit One
Год выпуска: 2002
Страна: Дания, Швеция
Жанр: триллер, драма, криминал
Продолжительность: 02 х ~ 00:58:00
Перевод: профессиональный (многоголосый закадровый) - Baibako
Субтитры: нет
Режиссер: Нильс Арден Оплев, Оле Кристиан Мадсен, Янник Йохансен

В ролях: Шарлотте Фич, Мадс Миккельсен, Ларс Бригманн, Вааге Сандо, Эрик Ведерсо, Трине Паллесен, Ларс Бом.

Описание: Подразделение 1 - это спецподразделение датской полиции для расследования особо сложных убийств. После того, как шеф подразделения сам становится жертвой загадочного убийства, выбор нового руководителя падает на женщину. Согласны ли бывшие сотрудники "убойного" подчиняться Ингрид Даль? Достаточно ли в ней опыта, упрямства и самоиронии, чтобы создать из циничных опытных полицейских свою команду единомышленников? Эта задача оказывается непростой и для команды, и для самой Ингрид... Неожиданные повороты в сценарии, участие в сериале лучших звезд датского кино (Мадс Миккельсен, Ларс Бригманн, Шарлотте Фич, Ларс Бом) обеспечили ему звание самого любимого в Дании и международный приз "Emmy Award" за лучший сериал. В каждой серии появляются новые знакомые лица, известные нам из датских Догм и других полюбившихся фильмов этой особенной кино-страны. Многие ждали этого сериала много лет, и вот он впервые в русском переводе. (с) муза

Релиз от:

Качество: DVDRip
Формат: AVI
Видео кодек: XVID
Аудио кодек: MP3
Видео: MPEG-4 Visual Advanced Simple@L5 XviD 720x400 1500 Кбит/сек 25,000 кадров/сек 0.22 bit/pixel
Аудио rus: MPEG-1 Audio layer 3 2 канала 48,0 КГц 192 Кбит/сек CBR
Аудио dat: MPEG-1 Audio layer 3 2 канала 48,0 КГц 192 Кбит/сек CBR

02.01.2013 г. торент обновлён, добавлена 3-6 серия!
Перевод: Вадим Литвиненко
Озвучка: Татьяна Оболевич, Юлия Котурбаш, Александр Фурман и Олекса Мельник.
Монтаж: Vitall Digitall
Обложка: Татьяна Saavick
Формат : AVI
Формат/Информация : Audio Video Interleave
Размер файла : 771 Мбайт
Продолжительность : 57 м.
Общий поток : 1891 Кбит/сек

Видео
Идентификатор : 0
Формат : MPEG-4 Visual
Профиль формата : Advanced Simple@L5
Параметр BVOP формата : 2
Параметр QPel формата : Нет
Параметр GMC формата : Без точки перехода
Параметр матрицы формата : Default (H.263)
Идентификатор кодека : XVID
Идентификатор кодека/Подсказка : XviD
Продолжительность : 57 м.
Битрейт : 1500 Кбит/сек
Ширина : 720 пикс.
Высота : 400 пикс.
Соотношение сторон : 16:9
Частота кадров : 25,000 кадр/сек
Цветовое пространство : YUV
Подвыборка цветности : 4:2:0
Битовая глубина : 8 бит
Тип развёртки : Прогрессивная
Метод сжатия : С потерями
Бит/(Пиксели*Кадры) : 0.208
Размер потока : 612 Мбайт (79%)
Библиотека кодирования : XviD 1.2.1 (UTC 2008-12-04)

Аудио #1
Идентификатор : 1
Формат : MPEG Audio
Версия формата : Version 1
Профиль формата : Layer 3
Режим : Joint stereo
Идентификатор кодека : 55
Идентификатор кодека/Подсказка : MP3
Продолжительность : 57 м.
Вид битрейта : Постоянный
Битрейт : 192 Кбит/сек
Каналы : 2 канала
Частота : 48,0 КГц
Метод сжатия : С потерями
Размер потока : 78,3 Мбайт (10%)
Выравнивание : Соединение по промежуткам
Продолжительность промежутка : 160 мс. (4,00 видеокадра)
Время предзагрузки промежутка : 216 ms
Заголовок : Rejseholdet.s03e02.DVDRip.x264.Rus.Dan.BaibaKo.tv.mp4_track_1_russian_audio
Библиотека кодирования : LAME3.99r
Настройки программы : -m j -V 4 -q 2 -lowpass 18.6 -b 192

Аудио #2
Идентификатор : 2
Формат : MPEG Audio
Версия формата : Version 1
Профиль формата : Layer 3
Режим : Joint stereo
Расширение режима : MS Stereo
Идентификатор кодека : 55
Идентификатор кодека/Подсказка : MP3
Продолжительность : 57 м.
Вид битрейта : Постоянный
Битрейт : 192 Кбит/сек
Каналы : 2 канала
Частота : 48,0 КГц
Метод сжатия : С потерями
Размер потока : 78,3 Мбайт (10%)
Выравнивание : Соединение по промежуткам
Продолжительность промежутка : 160 мс. (4,00 видеокадра)
Время предзагрузки промежутка : 216 ms
Заголовок : Rejseholdet.s03e02.DVDRip.x264.Rus.Dan.BaibaKo.tv.mp4_track_2_danish_audio
Библиотека кодирования : LAME3.99r
Настройки программы : -m j -V 4 -q 2 -lowpass 18.6 -b 192



Скачать Подразделение.1.Первая.группа.Rejseholdet.Unit.One.(03х01-06.из.07).(Нильс.Арден.Оплев.Оле.Кристиан.Мадсен.Янник.Йохансен).[2002.триллер.драма.криминал.DVDRip].[MVO.(Baibako)].torrent без регистрации
Золото ЗОЛОТАЯ РАЗДАЧА! СКАЧАННОЕ НЕ ЗАСЧИТЫВАЕТСЯ! Золото
Дата: Зарегистрирован   [ Тип: внутренний ] Как тут cкачать?
MAGNET ссылка
MAGNET ссылка


Скачать .torrent

23 KB

Статус: проверено DHT
Скачан: торрент - 130 раз, раздача полностью - 4 раз
Размер: 4,48 GB
Оценка:  - (Голосов: 0)
Поблагодарили: 0
Поделиться ссылкой на эту раздачу с друзьями:
В контактеFacebookОдноклассникиTwitterLivejournalМой МирLiveinternet
 

 
Показать сообщения:    


Вы не можете начинать темы
Вы не можете отвечать на сообщения
Вы не можете редактировать свои сообщения
Вы не можете удалять свои сообщения
Вы не можете голосовать в опросах
Вы не можете прикреплять файлы к сообщениям
Вы можете скачивать файлы