Loading...
Error

Скачать Ее алиби / Her Alibi (Брюс Бересфорд) [1989, мелодрама, комедия, криминал, детектив, DVDRip-AVC] [Dub]+[MVO]+[Оригинал] торрент без регистрации

 
Статистика раздачи
Размер:  1,45 GB   |    Скачан:  121 раз
Сидов:  1  [  0 KB/s  ]  
 
Автор Сообщение

Marsianka

[] 

Ее алиби / Her Alibi (1989) DVDRip-AVC

Информация о фильме
Название: Ее алиби
Оригинальное название: Her Alibi
Год выхода: 1989
Жанр: мелодрама, комедия, криминал, детектив
Режиссер: Брюс Бересфорд

В ролях: Том Селлек, Паулина Поризкова, Уильям Дэниелс, Джеймс Фарентино, Херд Хэтфилд, Рональд Гаттмен, Виктор Арго, Патрик Уэйн, Тесс Харпер, Билл Смитрович ...

О фильме: На писателя Филлипа Блэквуда, сочинителя детективных романов, обрушилось несчастье величиной с Манхеттен: он утратил способность писать. С отчаяния он начал посещать залы судебных заседаний в поисках озарения и был сражен наповал.

Загадочная красавица-румынка, подозреваемая в убийстве, пробудила в нем и творческие, и романтические импульсы. Блэквуд обеспечивает ее алиби и уносится с ней в свой дом в штате Коннектикут. Теперь она в безопасности.

Но в безопасности ли он сам? Том Селлек и Полина Поризкова в главных ролях в этой комедии, игристой смеси тайны и романтической любви.



Страна: США
Продолжительность: 01:35:02
Перевод: Дублированный (Варус Видео), Многоголосый закадровый (НТВ+), Оригинал (Английский)

Файл
Кодек: h.264
Качество: DVDRip-AVC
Видео: 704x480 @ 704x528 (4:3), 23.976 fps, 1548 kbps, 0.191 bit/pixel
Аудио #1: 48 kHz, AC3 2.0, 192.00 kbps (Варус Видео)
Аудио #2: 48 kHz, AC3 2.0, 256.00 kbps (НТВ+)
Аудио #3: 48 kHz, AC3 2.0, 192.00 kbps (Оригинал)

&
Общее
Уникальный идентификатор : 245298580882456146932829697378306034635 (0xB88AC9C907A27AC1ACB7021018510BCB)
Полное имя : D:Her Alibi.1989.DVDRip-AVC.mkv
Формат : Matroska
Версия формата : Version 4 / Version 2
Размер файла : 1,45 Гбайт
Продолжительность : 1 ч. 35 м.
Общий поток : 2185 Кбит/сек
Название фильма : Ее алиби / Her Alibi (1989) DVDRip-AVC rip by Rulya74
Дата кодирования : UTC 2010-02-22 21:41:31
Программа кодирования : mkvmerge v5.9.0 ('On The Loose') built on Dec 9 2012 15:37:01
Библиотека кодирования : libebml v1.3.0 + libmatroska v1.4.0

Видео
Идентификатор : 1
Формат : AVC
Формат/Информация : Advanced Video Codec
Профиль формата : High@L4.1
Параметр CABAC формата : Да
Параметр ReFrames формата : 8 кадров
Идентификатор кодека : V_MPEG4/ISO/AVC
Продолжительность : 1 ч. 35 м.
Битрейт : 1548 Кбит/сек
Ширина : 704 пикселя
Высота : 480 пикселей
Соотношение сторон : 4:3
Частота кадров : 23,976 кадра/сек
Стандарт вещания : NTSC
Цветовое пространство : YUV
Субдискретизация насыщенности : 4:2:0
Битовая глубина : 8 бит
Тип развёртки : Прогрессивная
Бит/(Пиксели*Кадры) : 0.191
Размер потока : 1021 Мбайт (69%)
Библиотека кодирования : x264 core 129 r2230 1cffe9f
Настройки программы : cabac=1 / ref=8 / deblock=1:-2:-1 / analyse=0x3:0x133 / me=umh / subme=9 / psy=1 / psy_rd=1.05:0.02 / mixed_ref=1 / me_range=32 / chroma_me=1 / trellis=2 / 8x8dct=1 / cqm=0 / deadzone=21,11 / fast_pskip=0 / chroma_qp_offset=-3 / threads=2 / lookahead_threads=1 / sliced_threads=0 / nr=0 / decimate=1 / interlaced=0 / bluray_compat=0 / constrained_intra=0 / bframes=5 / b_pyramid=2 / b_adapt=2 / b_bias=0 / direct=3 / weightb=1 / open_gop=0 / weightp=2 / keyint=240 / keyint_min=23 / scenecut=40 / intra_refresh=0 / rc_lookahead=40 / rc=2pass / mbtree=1 / bitrate=1548 / ratetol=1.0 / qcomp=0.60 / qpmin=10 / qpmax=51 / qpstep=4 / cplxblur=20.0 / qblur=0.5 / ip_ratio=1.40 / aq=2:1.00
Default : Да
Forced : Нет

Аудио #1
Идентификатор : 2
Формат : AC-3
Формат/Информация : Audio Coding 3
Расширение режима : CM (complete main)
Идентификатор кодека : A_AC3
Продолжительность : 1 ч. 35 м.
Вид битрейта : Постоянный
Битрейт : 192 Кбит/сек
Каналы : 2 канала
Расположение каналов : Front: L R
Частота : 48,0 КГц
Битовая глубина : 16 бит
Метод сжатия : С потерями
Размер потока : 131 Мбайт (9%)
Заголовок : Дублированный (Варус Видео)
Язык : Russian
Default : Да
Forced : Нет

Аудио #2
Идентификатор : 3
Формат : AC-3
Формат/Информация : Audio Coding 3
Расширение режима : CM (complete main)
Идентификатор кодека : A_AC3
Продолжительность : 1 ч. 35 м.
Вид битрейта : Постоянный
Битрейт : 256 Кбит/сек
Каналы : 2 канала
Расположение каналов : Front: L R
Частота : 48,0 КГц
Битовая глубина : 16 бит
Метод сжатия : С потерями
Размер потока : 174 Мбайт (12%)
Заголовок : Многоголосый закадровый (НТВ+)
Язык : Russian
Default : Нет
Forced : Нет

Аудио #3
Идентификатор : 4
Формат : AC-3
Формат/Информация : Audio Coding 3
Профиль формата : Dolby Digital
Расширение режима : CM (complete main)
Идентификатор кодека : A_AC3
Продолжительность : 1 ч. 35 м.
Вид битрейта : Постоянный
Битрейт : 192 Кбит/сек
Каналы : 2 канала
Расположение каналов : Front: L R
Частота : 48,0 КГц
Битовая глубина : 16 бит
Метод сжатия : С потерями
Размер потока : 131 Мбайт (9%)
Заголовок : Оригинал
Язык : English
Default : Нет
Forced : Нет



Скачать Ее.алиби.Her.Alibi.(Брюс.Бересфорд).[1989.мелодрама.комедия.криминал.детектив.DVDRip-AVC].[Dub]+[MVO]+[Оригинал].torrent без регистрации
Золото ЗОЛОТАЯ РАЗДАЧА! СКАЧАННОЕ НЕ ЗАСЧИТЫВАЕТСЯ! Золото
Дата: Зарегистрирован   [ Тип: внутренний ] Как тут cкачать?
MAGNET ссылка
MAGNET ссылка


Скачать .torrent

15 KB

Статус: проверено DHT
Скачан: торрент - 121 раз, раздача полностью - 29 раз
Размер: 1,45 GB
Оценка:  - (Голосов: 0)
Поблагодарили: 1
Поделиться ссылкой на эту раздачу с друзьями:
В контактеFacebookОдноклассникиTwitterLivejournalМой МирLiveinternet
 

 
Показать сообщения:    


Вы не можете начинать темы
Вы не можете отвечать на сообщения
Вы не можете редактировать свои сообщения
Вы не можете удалять свои сообщения
Вы не можете голосовать в опросах
Вы не можете прикреплять файлы к сообщениям
Вы можете скачивать файлы