Loading...
Error

Скачать Кома / Coma (Майкл Крайтон) [1978, фантастика, триллер, детектив, BDRip-AVC] [MVO]+[Оригинал] торрент без регистрации

 
Статистика раздачи
Размер:  1,45 GB   |    Скачан:  114 раз
Сидов:  1  [  0 KB/s  ]  
 
Автор Сообщение

Marsianka

[] 

Кома / Coma (1978) BDRip-AVC

Жанр: фантастика, триллер, детектив
Страна: США
Режиссер: Майкл Крайтон
В ролях: Женевьев Бюжо, Майкл Дуглас, Элизабет Эшли, Рип Торн, Ричард Уидмарк, Лоис Чайлз, Хари Родс, Гари Бартон, Фрэнк Доунинг, Ричард Дойл ...

Сюжет фильма: Молодая женщина-доктор начинает подозревать, что в ее больнице творится что-то неладное. Относительно здоровые пациенты испытывают «осложнения» во время простых операций и впадают в кому.

Затем несчастных коматозников отвозят в исследовательский институт, где они находятся под наблюдением. Доктору Сьюзан Уилер предстоит исследовать палаты, морги и другие мрачные места жутковатого медицинского центра Джефферсона и убедить своего скептически настроенного коллегу доктора Марка, что ее подозрения не паранойя.


Мировая премьера: 6 января 1978



Продолжительность: 01:52:59
Качество видео: BDRip-AVC
Видео: кодек: x264, размер кадра: 1024x576, битрейт: 1450 кб/с, bit/pixel: 0.103
Аудио #1: язык: Русский , перевод: профессиональный многоголосый закадровый, кодек: AC3 2.0, битрейт: 192.00 кб/с
Аудио #2: язык: Английский , перевод: оригинал, кодек: AC3 2.0, битрейт: 192.00 кб/с

Общее
Уникальный идентификатор : 236103789167279922352858141655224760009 (0xB19FEF8D93E9818FAE885266F36336C9)
Полное имя : D:Coma.1978.BDRip-AVC.PT.mkv
Формат : Matroska
Версия формата : Version 2
Размер файла : 1,45 Гбайт
Продолжительность : 1 ч. 52 м.
Общий поток : 1834 Кбит/сек
Название фильма : Кома / Coma (1978) BDRip-AVC rip by rulya74
Дата кодирования : UTC 2012-07-06 16:26:39
Программа кодирования : mkvmerge v5.6.0 ('Kenya Kane') built on May 27 2012 16:44:04
Библиотека кодирования : libebml v1.2.3 + libmatroska v1.3.0

Видео
Идентификатор : 1
Формат : AVC
Формат/Информация : Advanced Video Codec
Профиль формата : High@L4.1
Параметр CABAC формата : Да
Параметр ReFrames формата : 10 кадров
Идентификатор кодека : V_MPEG4/ISO/AVC
Продолжительность : 1 ч. 52 м.
Битрейт : 1450 Кбит/сек
Ширина : 1024 пикселя
Высота : 576 пикселей
Соотношение сторон : 16:9
Частота кадров : 23,976 кадра/сек
Цветовое пространство : YUV
Субдискретизация насыщенности : 4:2:0
Битовая глубина : 8 бит
Тип развёртки : Прогрессивная
Бит/(Пиксели*Кадры) : 0.103
Размер потока : 1,12 Гбайт (77%)
Библиотека кодирования : x264 core 125 r2200 999b753
Настройки программы : cabac=1 / ref=10 / deblock=1:-3:-3 / analyse=0x3:0x113 / me=umh / subme=10 / psy=1 / psy_rd=1.00:0.00 / mixed_ref=1 / me_range=38 / chroma_me=1 / trellis=2 / 8x8dct=1 / cqm=0 / deadzone=21,11 / fast_pskip=1 / chroma_qp_offset=-2 / threads=12 / lookahead_threads=2 / sliced_threads=0 / nr=0 / decimate=1 / interlaced=0 / bluray_compat=0 / constrained_intra=0 / bframes=11 / b_pyramid=2 / b_adapt=1 / b_bias=0 / direct=3 / weightb=1 / open_gop=0 / weightp=2 / keyint=240 / keyint_min=23 / scenecut=40 / intra_refresh=0 / rc=2pass / mbtree=0 / bitrate=1450 / ratetol=1.0 / qcomp=0.60 / qpmin=10 / qpmax=51 / qpstep=4 / cplxblur=20.0 / qblur=0.5 / ip_ratio=1.40 / pb_ratio=1.30 / aq=1:1.00
Default : Да
Forced : Нет

Аудио #1
Идентификатор : 2
Формат : AC-3
Формат/Информация : Audio Coding 3
Расширение режима : CM (complete main)
Идентификатор кодека : A_AC3
Продолжительность : 1 ч. 52 м.
Вид битрейта : Постоянный
Битрейт : 192 Кбит/сек
Каналы : 2 канала
Расположение каналов : Front: L R
Частота : 48,0 КГц
Битовая глубина : 16 бит
Метод сжатия : С потерями
Размер потока : 155 Мбайт (10%)
Заголовок : Многоголосый закадровый
Язык : Russian
Default : Да
Forced : Нет

Аудио #2
Идентификатор : 3
Формат : AC-3
Формат/Информация : Audio Coding 3
Расширение режима : CM (complete main)
Идентификатор кодека : A_AC3
Продолжительность : 1 ч. 52 м.
Вид битрейта : Постоянный
Битрейт : 192 Кбит/сек
Каналы : 1 канал
Расположение каналов : Front: C
Частота : 48,0 КГц
Битовая глубина : 16 бит
Метод сжатия : С потерями
Размер потока : 155 Мбайт (10%)
Заголовок : Оригинал
Язык : English
Default : Нет
Forced : Нет



Скачать Кома.Coma.(Майкл.Крайтон).[1978.фантастика.триллер.детектив.BDRip-AVC].[MVO]+[Оригинал].torrent без регистрации
Золото ЗОЛОТАЯ РАЗДАЧА! СКАЧАННОЕ НЕ ЗАСЧИТЫВАЕТСЯ! Золото
Дата: Зарегистрирован   [ Тип: внутренний ] Как тут cкачать?
MAGNET ссылка
MAGNET ссылка


Скачать .torrent

15 KB

Статус: проверено DHT
Скачан: торрент - 114 раз, раздача полностью - 53 раз
Размер: 1,45 GB
Оценка:  - (Голосов: 0)
Поблагодарили: 2
Поделиться ссылкой на эту раздачу с друзьями:
В контактеFacebookОдноклассникиTwitterLivejournalМой МирLiveinternet
 

 
Показать сообщения:    


Вы не можете начинать темы
Вы не можете отвечать на сообщения
Вы не можете редактировать свои сообщения
Вы не можете удалять свои сообщения
Вы не можете голосовать в опросах
Вы не можете прикреплять файлы к сообщениям
Вы можете скачивать файлы