Loading...
Error

/ / / Beyond The Law / Fixing The Shadow ( ) [1992, , , HDTVRip-AVC] [VO] (kyberpunk)

 
2,18 GB   |    :  211

: 22

 

leon030982

[] 

/ Beyond The Law


: 1992
:
: ,
: 01:48:42
: () [Kyberpunk] ( )
: ( ),
:
: / Larry Ferguson

: , , , . , , , , ,

: . , . , . ?
|
. : , - Perevodman
: HDTVRip-AVC ( )
: MKV
: MPEG-4 AVC Video, 1024x576 (16:9), 2097 Kbps, 23.976 fps
: AC3, 16 bits, 384 kbps, 48,0 kHz, 5.1 (Kyberpunk)
: AC3, 16 bits, 384 kbps, 48,0 kHz, 5.1 (English)
: softsub (SRT)

:

General
Unique ID : 215363339318940013480221621463054747775 (0xA205786CE7AA59AFBF853E76299B087F)
Complete name : Beyond.the.Law.kyberpunk.mkv
Format : Matroska
Format version : Version 4 / Version 2
File size : 2.18 GiB
Duration : 1h 48mn
Overall bit rate mode : Variable
Overall bit rate : 2 867 Kbps
Encoded date : UTC 2010-02-22 21:41:31
Writing application : mkvmerge v5.9.0 ('On The Loose') built on Dec 9 2012 15:37:01
Writing library : libebml v1.3.0 + libmatroska v1.4.0
Video
ID : 1
Format : AVC
Format/Info : Advanced Video Codec
Format profile : High@L4.1
Format settings, CABAC : Yes
Format settings, ReFrames : 14 frames
Codec ID : V_MPEG4/ISO/AVC
Bit rate mode : Variable
Bit rate : 2 097 Kbps
Maximum bit rate : 50.0 Mbps
Width : 1 024 pixels
Height : 576 pixels
Display aspect ratio : 16:9
Frame rate mode : Variable
Original frame rate : 23.976 fps
Color space : YUV
Chroma subsampling : 4:2:0
Bit depth : 8 bits
Scan type : Progressive
Bits/(Pixel*Frame) : 0.148
Title : x264 by Perevodman
Writing library : x264 core 125 r2200 999b753
Encoding settings : cabac=1 / ref=14 / deblock=1:-3:-3 / analyse=0x3:0x133 / me=umh / subme=10 / psy=1 / psy_rd=1.00:0.00 / mixed_ref=1 / me_range=32 / chroma_me=1 / trellis=2 / 8x8dct=1 / cqm=0 / deadzone=21,11 / fast_pskip=0 / chroma_qp_offset=-2 / threads=6 / lookahead_threads=1 / sliced_threads=0 / nr=0 / decimate=0 / interlaced=0 / bluray_compat=0 / constrained_intra=0 / bframes=16 / b_pyramid=2 / b_adapt=2 / b_bias=0 / direct=3 / weightb=1 / open_gop=0 / weightp=2 / keyint=240 / keyint_min=23 / scenecut=40 / intra_refresh=0 / rc_lookahead=60 / rc=2pass / mbtree=1 / bitrate=2097 / ratetol=1.0 / qcomp=0.60 / qpmin=10 / qpmax=51 / qpstep=4 / cplxblur=20.0 / qblur=0.5 / vbv_maxrate=50000 / vbv_bufsize=62500 / nal_hrd=vbr / ip_ratio=1.40 / aq=1:1.00
Language : English
Default : Yes
Forced : No
Audio #1
ID : 2
Format : AC-3
Format/Info : Audio Coding 3
Mode extension : CM (complete main)
Format settings, Endianness : Big
Codec ID : A_AC3
Duration : 1h 48mn
Bit rate mode : Constant
Bit rate : 384 Kbps
Channel(s) : 6 channels
Channel positions : Front: L C R, Side: L R, LFE
Sampling rate : 48.0 KHz
Bit depth : 16 bits
Compression mode : Lossy
Stream size : 299 MiB (13%)
Title : VO kyberpunk
Language : Russian
Default : Yes
Forced : No
Audio #2
ID : 3
Format : AC-3
Format/Info : Audio Coding 3
Mode extension : CM (complete main)
Format settings, Endianness : Big
Codec ID : A_AC3
Duration : 1h 48mn
Bit rate mode : Constant
Bit rate : 384 Kbps
Channel(s) : 6 channels
Channel positions : Front: L C R, Side: L R, LFE
Sampling rate : 48.0 KHz
Bit depth : 16 bits
Compression mode : Lossy
Stream size : 299 MiB (13%)
Title : Original
Language : English
Default : No
Forced : No
Text #1
ID : 4
Format : UTF-8
Codec ID : S_TEXT/UTF8
Codec ID/Info : UTF-8 Plain Text
Title :
Language : Russian
Default : No
Forced : No
Text #2
ID : 5
Format : UTF-8
Codec ID : S_TEXT/UTF8
Codec ID/Info : UTF-8 Plain Text
Title : Original
Language : English
Default : No
Forced : No



.........Beyond.The.Law.Fixing.The.Shadow.(.).[1992...HDTVRip-AVC].[VO].(kyberpunk).torrent
  ! ! 
:   [ : ] c?
MAGNET
MAGNET


.torrent

11 KB

: DHT
: - 211 , - 36
: 2,18 GB
- (: 0)
: 2
:
 FacebookTwitterLivejournal Liveinternet
 

 
: