Loading...
Error

Скачать Родина / Homeland (Сезон 2 полный) (Майкл Куэста, Кларк Джонсон, Джеффри Начманофф) [2012 г., Триллер, драма, криминал, детектив, WEB-DLRip] [DVO] (Кубик в Кубе) торрент без регистрации

 
Статистика раздачи
Размер:  6,61 GB   |    Скачан:  4647 раз
Сидов:  1  [  0 KB/s  ]  
 
Автор Сообщение

leon030982

[] 

Родина / Homeland
Год выпуска: 2012
Страна: США
Жанр: Триллер, драма, криминал, детектив
Продолжительность: 55 мин
Перевод: Профессиональный двухголосый закадровый(Кубик в Кубе)
Субтитры: рус
Режиссер: Майкл Куэста, Кларк Джонсон, Джеффри Начманофф
В ролях:
Клэр Дэйнс, Дамиан Льюис, Морена Баккарин, Дэвид Хэрвуд, Диего Клаттенхофф, Джексон Паке, Моргон Сэйлор, Мэнди Пэтинкин, Дэвид Марсиано, Навид Негабан и др.
Описание:
Аналитик ЦРУ Кэрри Мэтисон во время операции в Ираке выясняет, что американский военнопленный завербован Аль-Каедой. Вскоре после этого отряд спецназа Дельта во время зачистки обнаруживает сержанта морской пехоты Николаса Броуди, который числился пропавшим без вести с 2003-го года. Понимая, что доказать виновность Броуди будет практически невозможно, Кэрри обращается за помощью к своему наставнику Солу Беренсону. Вместе они будут вести расследование, чтобы предотвратить очередной теракт на территории США.
Качество: WEB-DLRip
Формат: AVI
Видео кодек: XviD
Аудио кодек: MP3
Видео: 624x352 (1.77:1), 23.976 fps, XviD build 65 ~1060 kbps avg, 0.20 bit/pixel
Audio Rus: 48 kHz, MPEG Layer 3, 2 ch, ~224.00 kbps avg
Audio Eng: 48 kHz, MPEG Layer 3, 2 ch, ~224.00 kbps avg

Релиз: &
Озвучка:
Кубик в Кубе
Перевод: El_Brujo
Рип: ЛП


General
Complete name : F:\ФТП 2\Work\Kybik v Kybe\Homeland Season 2 Kybik v Kybe\Homeland.s02e01.rus.eng.Kybik.v.Kybe.avi
Format : AVI
Format/Info : Audio Video Interleave
File size : 615 MiB
Duration : 56mn 27s
Overall bit rate : 1 524 Kbps
Writing application : VirtualDubMod 1.5.10.2 (build 2540/release)
Writing library : VirtualDubMod build 2540/release
Video
ID : 0
Format : MPEG-4 Visual
Format profile : Advanced Simple@L5
Format settings, BVOP : 1
Format settings, QPel : No
Format settings, GMC : No warppoints
Format settings, Matrix : Default (H.263)
Codec ID : XVID
Codec ID/Hint : XviD
Duration : 56mn 27s
Bit rate : 1 062 Kbps
Width : 624 pixels
Height : 352 pixels
Display aspect ratio : 16:9
Frame rate : 23.976 fps
Color space : YUV
Chroma subsampling : 4:2:0
Bit depth : 8 bits
Scan type : Progressive
Compression mode : Lossy
Bits/(Pixel*Frame) : 0.202
Stream size : 429 MiB (70%)
Writing library : XviD 65
Audio #1
ID : 1
Format : MPEG Audio
Format version : Version 1
Format profile : Layer 3
Mode : Joint stereo
Codec ID : 55
Codec ID/Hint : MP3
Duration : 56mn 27s
Bit rate mode : Constant
Bit rate : 224 Kbps
Channel(s) : 2 channels
Sampling rate : 48.0 KHz
Compression mode : Lossy
Stream size : 90.5 MiB (15%)
Alignment : Aligned on interleaves
Interleave, duration : 42 ms (1.00 video frame)
Interleave, preload duration : 504 ms
Audio #2
ID : 2
Format : MPEG Audio
Format version : Version 1
Format profile : Layer 3
Mode : Joint stereo
Mode extension : MS Stereo
Codec ID : 55
Codec ID/Hint : MP3
Duration : 56mn 27s
Bit rate mode : Constant
Bit rate : 224 Kbps
Channel(s) : 2 channels
Sampling rate : 48.0 KHz
Compression mode : Lossy
Stream size : 90.5 MiB (15%)
Alignment : Aligned on interleaves
Interleave, duration : 42 ms (1.00 video frame)
Interleave, preload duration : 504 ms
Writing library : LAME3.99r
Encoding settings : -m j -V 4 -q 2 -lowpass 19.4 -b 224
Внимание! Раздача ведётся путём добавления новых серий; при каждом добавлении создётся новый торрент. Чтобы начать докачку новой серии, пользователям необходимо сделать следующее: (1) остановить скачивание, (2) удалить старый торрент у себя из клиента (старые серии удалять не надо), (3) скачать новый торрент и запустить его у себя в клиенте вместо старого, при этом указать клиенту путь в старую папку куда и должно происходить скачивание новых серий.
Ваш клиент при этом должен произвести хеширование (проверку) старой папки (если не производит сам - помогите ему сделать это), и будет докачивать только те серии которых у вас ещё нет. Старые серии при этом не удаляются, а продолжают раздаваться!
Eсли вы уже удалили старые серии, то предотвратить повторную закачку старых серий можно, отжав галочку в соответсвующих местах при запуске нового торрента.



Скачать Родина.Homeland.(Сезон.2.полный).(Майкл.Куэста.Кларк.Джонсон.Джеффри.Начманофф).[2012.г.Триллер.драма.криминал.детектив.WEB-DLRip].[DVO].(Кубик.в.Кубе).torrent без регистрации
Золото ЗОЛОТАЯ РАЗДАЧА! СКАЧАННОЕ НЕ ЗАСЧИТЫВАЕТСЯ! Золото
Дата: Зарегистрирован   [ Тип: внутренний ] Как тут cкачать?
MAGNET ссылка
MAGNET ссылка


Скачать .torrent

20 KB

Статус: проверено DHT
Скачан: торрент - 4647 раз, раздача полностью - 222 раз
Размер: 6,61 GB
Оценка:  - (Голосов: 0)
Поблагодарили: 2
Поделиться ссылкой на эту раздачу с друзьями:
В контактеFacebookОдноклассникиTwitterLivejournalМой МирLiveinternet
 

 
Показать сообщения:    


Вы не можете начинать темы
Вы не можете отвечать на сообщения
Вы не можете редактировать свои сообщения
Вы не можете удалять свои сообщения
Вы не можете голосовать в опросах
Вы не можете прикреплять файлы к сообщениям
Вы можете скачивать файлы