Loading...
Error

Скачать Четыре Рождества / Four Christmases (Сет Гордон) [2008, комедия, мелодрама, драма, BDRip-AVC] [Dub]+[Sub] торрент без регистрации

 
Статистика раздачи
Размер:  2,69 GB   |    Скачан:  122 раза

Полного источника не было: 19 минут

Личеров:  1  [  0 KB/s  ]  
 
Автор Сообщение

Marsianka

[] 

Информация о фильме
Название: Четыре Рождества
Оригинальное название: Four Christmases
Год выхода: 2008
Жанр: комедия, мелодрама, драма
Режиссер: Сет Гордон
В ролях: Винс Вон, Риз Уизерспун, Роберт Дювалл, Сисси Спейсек, Джон Войт, Джон Фавро, Мэри Стинберген, Дуайт Йоакам, Тим МакГроу, Кристин Ченоуэт

О фильме:
Влюбленная пара, Брэд и Кейт, пытаются встретить Рождество вместе со своими родителями, но дело осложняется тем, что и его, и ее родители в разводе, поэтому им нужно за один день успеть в четыре разных места



Страна: США, Германия
Продолжительность: 01:28:32
Перевод: Дублированный
Субтитры: Русские, английские
Дата релиза: 19.12.2012

Файл
Кодек: H.264
Качество: BDRip (AVC) (Blu-Ray (1080p))
Видео: MPEG-4 AVC, 3000 Кбит/с, 1024x576
Звук:
Аудио 1: Русский (AC3, 6 ch, 448 Кбит/с) - дублированный
Аудио 2: Украинский (AC3, 6 ch, 448 Кбит/с) - дублированный
Аудио 3: Английский (AC3, 6 ch, 448 Кбит/с)
Общее
Уникальный идентификатор : 204825090265960629668574361095444606625 (0x9A17E0A1E82A7FF5A9AF40D0BAD7AEA1)
Полное имя : G:2Chetyre.Rozhdestva.2008.x264.BDRip.(AVC).ExKinoRay.mkv
Формат : Matroska
Версия формата : Version 2
Размер файла : 2,69 Гбайт
Продолжительность : 1 ч. 28 м.
Общий поток : 4343 Кбит/сек
Название фильма : Chetyre.Rozhdestva.2008.x264.BDRip.(AVC).ExKinoRay
Дата кодирования : UTC 2012-12-19 08:41:34
Программа кодирования : mkvmerge v4.0.0 ('The Stars were mine') сборка от Jun 6 2010 16:18:42
Библиотека кодирования : libebml v1.0.0 + libmatroska v1.0.0

Видео
Идентификатор : 1
Формат : AVC
Формат/Информация : Advanced Video Codec
Профиль формата : High@L4.1
Параметр CABAC формата : Да
Параметр ReFrames формата : 8 кадров
Идентификатор кодека : V_MPEG4/ISO/AVC
Продолжительность : 1 ч. 28 м.
Битрейт : 3000 Кбит/сек
Ширина : 1024 пикселя
Высота : 576 пикселей
Соотношение сторон : 16:9
Частота кадров : 23,976 кадра/сек
Цветовое пространство : YUV
Субдискретизация насыщенности : 4:2:0
Битовая глубина : 8 бит
Тип развёртки : Прогрессивная
Бит/(Пиксели*Кадры) : 0.212
Размер потока : 1,80 Гбайт (67%)
Заголовок : Rip by Enigma-Vladislav71
Библиотека кодирования : x264 core 125 r2200 999b753
Настройки программы : cabac=1 / ref=8 / deblock=1:-2:-2 / analyse=0x3:0x133 / me=umh / subme=11 / psy=1 / psy_rd=1.00:0.00 / mixed_ref=1 / me_range=48 / chroma_me=1 / trellis=2 / 8x8dct=1 / cqm=0 / deadzone=21,11 / fast_pskip=0 / chroma_qp_offset=-2 / threads=3 / lookahead_threads=1 / sliced_threads=0 / nr=0 / decimate=0 / interlaced=0 / bluray_compat=0 / constrained_intra=0 / bframes=8 / b_pyramid=2 / b_adapt=2 / b_bias=0 / direct=3 / weightb=1 / open_gop=0 / weightp=2 / keyint=230 / keyint_min=22 / scenecut=40 / intra_refresh=0 / rc=2pass / mbtree=0 / bitrate=3000 / ratetol=1.0 / qcomp=0.60 / qpmin=10 / qpmax=51 / qpstep=4 / cplxblur=20.0 / qblur=0.5 / ip_ratio=1.40 / pb_ratio=1.30 / aq=2:1.00
Язык : English
Default : Нет
Forced : Нет

Аудио #1
Идентификатор : 2
Формат : AC-3
Формат/Информация : Audio Coding 3
Расширение режима : CM (complete main)
Идентификатор кодека : A_AC3
Продолжительность : 1 ч. 28 м.
Вид битрейта : Постоянный
Битрейт : 448 Кбит/сек
Каналы : 6 каналов
Расположение каналов : Front: L C R, Side: L R, LFE
Частота : 48,0 КГц
Битовая глубина : 16 бит
Метод сжатия : С потерями
Размер потока : 284 Мбайт (10%)
Заголовок : Дублированный
Язык : Russian
Default : Да
Forced : Нет

Аудио #2
Идентификатор : 3
Формат : AC-3
Формат/Информация : Audio Coding 3
Расширение режима : CM (complete main)
Идентификатор кодека : A_AC3
Продолжительность : 1 ч. 28 м.
Вид битрейта : Постоянный
Битрейт : 448 Кбит/сек
Каналы : 6 каналов
Расположение каналов : Front: L C R, Side: L R, LFE
Частота : 48,0 КГц
Битовая глубина : 16 бит
Метод сжатия : С потерями
Размер потока : 284 Мбайт (10%)
Заголовок : Украинский
Default : Нет
Forced : Нет

Аудио #3
Идентификатор : 4
Формат : AC-3
Формат/Информация : Audio Coding 3
Расширение режима : CM (complete main)
Идентификатор кодека : A_AC3
Продолжительность : 1 ч. 28 м.
Вид битрейта : Постоянный
Битрейт : 448 Кбит/сек
Каналы : 6 каналов
Расположение каналов : Front: L C R, Side: L R, LFE
Частота : 48,0 КГц
Битовая глубина : 16 бит
Метод сжатия : С потерями
Размер потока : 284 Мбайт (10%)
Заголовок : Английский
Язык : English
Default : Нет
Forced : Нет

Текст #1
Идентификатор : 5
Формат : UTF-8
Идентификатор кодека : S_TEXT/UTF8
Идентификатор кодека/Информация : UTF-8 Plain Text
Язык : Russian
Default : Нет
Forced : Нет

Текст #2
Идентификатор : 6
Формат : UTF-8
Идентификатор кодека : S_TEXT/UTF8
Идентификатор кодека/Информация : UTF-8 Plain Text
Язык : English
Default : Нет
Forced : Нет

Меню
00:00:00.000 : en:Chapter 01
00:03:50.605 : en:Chapter 02
00:06:37.939 : en:Chapter 03
00:10:55.446 : en:Chapter 04
00:14:13.227 : en:Chapter 05
00:18:20.057 : en:Chapter 06
00:22:27.137 : en:Chapter 07
00:26:38.430 : en:Chapter 08
00:31:33.349 : en:Chapter 09
00:35:09.774 : en:Chapter 10
00:38:00.778 : en:Chapter 11
00:41:37.369 : en:Chapter 12
00:45:11.083 : en:Chapter 13
00:47:13.747 : en:Chapter 14
00:50:45.167 : en:Chapter 15
00:54:38.984 : en:Chapter 16
00:58:45.897 : en:Chapter 17
01:03:44.028 : en:Chapter 18
01:07:34.842 : en:Chapter 19
01:12:30.596 : en:Chapter 20
01:15:47.793 : en:Chapter 21
01:18:27.536 : en:Chapter 22
01:20:05.008 : en:Chapter 23
Семпл Релиз от:

Авторы релиза:



Скачать Четыре.Рождества.Four.Christmases.(Сет.Гордон).[2008.комедия.мелодрама.драма.BDRip-AVC].[Dub]+[Sub].torrent без регистрации
Золото ЗОЛОТАЯ РАЗДАЧА! СКАЧАННОЕ НЕ ЗАСЧИТЫВАЕТСЯ! Золото
Дата: Зарегистрирован   [ Тип: внутренний ] Как тут cкачать?
MAGNET ссылка
MAGNET ссылка


Скачать .torrent

14 KB

Статус: проверено DHT
Скачан: торрент - 122 раз, раздача полностью - 86 раз
Размер: 2,69 GB
Оценка:  - (Голосов: 0)
Поблагодарили: 1
Поделиться ссылкой на эту раздачу с друзьями:
В контактеFacebookОдноклассникиTwitterLivejournalМой МирLiveinternet
 

 
Показать сообщения:    


Вы не можете начинать темы
Вы не можете отвечать на сообщения
Вы не можете редактировать свои сообщения
Вы не можете удалять свои сообщения
Вы не можете голосовать в опросах
Вы не можете прикреплять файлы к сообщениям
Вы можете скачивать файлы