Loading...
Error

Скачать Красотки / Bimboland (Ариэль Зэйтун) [1998, комедия, мелодрама, DVDRip] [MVO]+[Оригинал] торрент без регистрации

 
Статистика раздачи
Размер:  1,46 GB   |    Скачан:  127 раз
Сидов:  1  [  0 KB/s  ]  
 
Автор Сообщение

Marsianka

[] 

Год выпуска: 1998
Страна: Франция
Жанр: комедия, мелодрама
Продолжительность: 01:28:07

Перевод: Профессиональный (многоголосый, закадровый)
Оригинальная аудиодорожка: французский
Субтитры: нет

Режиссер: Ариэль Зэйтун / Ariel Zeitoun

В ролях: Жерар Депардье, Жюдит Годреш, Аманда Лир, Ори Атика, Софи Форте, Армель, Данибун, Летиция Лакруа, Тиам, Саския Мюльдер, Эвелин Буйль, Валери Баррье...

Описание: Как-то раз красотка Сесиль Бюсси обнаружила, что ведет совсем не такую жизнь, как большинство женщин. Ее знакомые не морочат себе голову антропологией, не пишут докторских диссертаций, а наслаждаются всеми радостями, которые могут предоставить роскошь и благополучие.
Знакомство с богатой подругой позволяет Сесиль с удивлением открыть новые грани своего характера, сделать шаг в незнакомый мир развлечений и удовольствий. Но чем больше времени девушки проводят вместе, тем больше черт они перенимают друг удруга, и вскоре уже трудно сказать, кто есть кто

Исходник: DVD5 (custom) мой же
Тип релиза: DVDRip
Контейнер: AVI
Дополнительно: По сравнению с моим релизом на трухе, здесь исправлен рассинхрон русского звука (до 400 мс) после 01:15:00, взятого из пиратского диска DVDSelect в марте 2009 года.

Видео: 720x384 (1.85:1), 25 fps, XviD ~ 1971 kbps avg, 0.285 bit/pixel
Аудио 1: 48 kHz, АС3, 2 ch, 192.00 kbps, русский
Аудио 2: 48 kHz, АС3, 2 ch, 192.00 kbps, французкий

Раздача от:

Общее
Полное имя : Krasotki.1998.P.DVDRip_[Youtracker]_by_avproh.avi
Формат : AVI
Формат/Информация : Audio Video Interleave
Размер файла : 1,46 Гбайт
Продолжительность : 1 ч. 28 м.
Общий поток : 2369 Кбит/сек
Программа кодирования : VirtualDubMod 1.5.10.3 (build 2550/release)
Библиотека кодирования : VirtualDubMod build 2550/release

Видео
Идентификатор : 0
Формат : MPEG-4 Visual
Профиль формата : Advanced Simple@L5
Параметр BVOP формата : 1
Параметр QPel формата : Нет
Параметр GMC формата : Без точки перехода
Параметр матрицы формата : Выборочная
Идентификатор кодека : XVID
Идентификатор кодека/Подсказка : XviD
Продолжительность : 1 ч. 28 м.
Битрейт : 1971 Кбит/сек
Ширина : 720 пикселей
Высота : 384 пикселя
Соотношение сторон : 1,85:1
Частота кадров : 25,000 кадров/сек
Цветовое пространство : YUV
Субдискретизация насыщенности : 4:2:0
Битовая глубина : 8 бит
Тип развёртки : Прогрессивная
Метод сжатия : С потерями
Бит/(Пиксели*Кадры) : 0.285
Размер потока : 1,21 Гбайт (83%)
Библиотека кодирования : XviD 61

Аудио #1
Идентификатор : 1
Формат : AC-3
Формат/Информация : Audio Coding 3
Расширение режима : CM (complete main)
Параметр Endianness формата : Big
Идентификатор кодека : 2000
Продолжительность : 1 ч. 28 м.
Вид битрейта : Постоянный
Битрейт : 192 Кбит/сек
Каналы : 2 канала
Расположение каналов : Front: L R
Частота : 48,0 КГц
Битовая глубина : 16 бит
Метод сжатия : С потерями
Размер потока : 121 Мбайт (8%)
Выравнивание : Разделение по промежуткам
Продолжительность промежутка : 40 мс. (1,00 видеокадр)
Время предзагрузки промежутка : 500 мс.

Аудио #2
Идентификатор : 2
Формат : AC-3
Формат/Информация : Audio Coding 3
Расширение режима : CM (complete main)
Параметр Endianness формата : Big
Идентификатор кодека : 2000
Продолжительность : 1 ч. 28 м.
Вид битрейта : Постоянный
Битрейт : 192 Кбит/сек
Каналы : 2 канала
Расположение каналов : Front: L R
Частота : 48,0 КГц
Битовая глубина : 16 бит
Метод сжатия : С потерями
Размер потока : 121 Мбайт (8%)
Выравнивание : Разделение по промежуткам
Продолжительность промежутка : 40 мс. (1,00 видеокадр)
Время предзагрузки промежутка : 500 мс.



Скачать Красотки.Bimboland.(Ариэль.Зэйтун).[1998.комедия.мелодрама.DVDRip].[MVO]+[Оригинал].torrent без регистрации
Золото ЗОЛОТАЯ РАЗДАЧА! СКАЧАННОЕ НЕ ЗАСЧИТЫВАЕТСЯ! Золото
Дата: Зарегистрирован   [ Тип: внутренний ] Как тут cкачать?
MAGNET ссылка
MAGNET ссылка


Скачать .torrent

15 KB

Статус: проверено DHT
Скачан: торрент - 127 раз, раздача полностью - 14 раз
Размер: 1,46 GB
Оценка:  2 (Голосов: 1)
Поблагодарили: 3
Поделиться ссылкой на эту раздачу с друзьями:
В контактеFacebookОдноклассникиTwitterLivejournalМой МирLiveinternet
 

 

leon030982

[] 

фильм так себе bl рейтинг на кинопоиске походу набили фанатки Депардье ag
 
Показать сообщения:    


Вы не можете начинать темы
Вы не можете отвечать на сообщения
Вы не можете редактировать свои сообщения
Вы не можете удалять свои сообщения
Вы не можете голосовать в опросах
Вы не можете прикреплять файлы к сообщениям
Вы можете скачивать файлы