Loading...
Error

Скачать Ультиматум Борна / The Bourne Ultimatum (Пол Гринграсс) [2007, боевик, триллер, криминал, BDRip] [720p] [Dub]+[Оригинал]+[Sub] торрент без регистрации

 
Статистика раздачи
Размер:  5,1 GB   |    Скачан:  194 раза
Сидов:  1  [  0 KB/s  ]  
 
Автор Сообщение

Marsianka

[] 

Ультиматум Борна / The Bourne Ultimatum (2007)
BDRip 720p от DHT-Movies

Название: Ультиматум Борна
Оригинальное название: The Bourne Ultimatum
Год выхода: 2007
Жанр: боевик, триллер, криминал
Режиссер: Пол Гринграсс

В ролях:

Мэтт Дэймон, Джулия Стайлз, Дэвид Стрэтэйрн, Скотт Гленн, Пэдди Консидайн, Эдгар Рамирез, Альберт Финни, Джоан Аллен, Том Галлоп, Кори Джонсон, Даниэль Брюль, Джои Анса, Колин Стинтон, Джон Роберсон, Синед О`Киффи

Описание:

Он хотел одного исчезнуть. Вместо этого за Борном теперь охотятся люди, которые сделали его таким, какой он есть. Он потерял память и человека, которого он любил. Но его не удается сдержать даже новому поколению профессиональных убийц. У него только одна цель: вернуться к началу и узнать кем он был, Джейсон Борн.

Он мечется от Москвы к Парижу, через Мадрид и Лондон в Танжер и Нью-Йорк, пытаясь раскрыть последние загадки своего прошлого, в то время, как правительственные агенты и Интерпол пытаются помешать ему восстановить всю картину до конца.


Страна: США, Германия
Продолжительность: 01:55:19
Перевод: Дубляж (Профессиональный[BD CEE]) + Оригинал (Английский)
Субтитры: Русские/Английские UTF-8 (full)

Релиз группа: | by AVT83
Качество: BDRip 720p |The Bourne Trilogy BluRay 1080P VC1 DTS-HDMA-CHDBits
Формат: MKV
Видео кодек: H.264
Видео: 1280x536/2.40:1/23.976 fps/5 436 Kbps/0.330 Bits/(Pixel*Frame)
Аудио (Русский): 48 kHz, AC3 Dolby Digital, 3/2 (L,C,R,l,r) + LFE ch, ~ 448 kbps avg | ( Дубляж)
Аудио (Английский): 48 kHz, AC3 Dolby Digital, 3/2 (L,C,R,l,r) + LFE ch, ~ 448 kbps avg | (Оригинал)

avs [info]: 1280x536p 1:1 @ 2500000/104271 fps (cfr)
x264 [info]: using SAR=1/1
x264 [info]: using cpu capabilities: MMX2 SSE2Fast SSSE3 FastShuffle SSE4.2
x264 [info]: profile High, level 4.1

x264 [info]: frame I:1147 Avg QP:15.80 size:105647
x264 [info]: frame P:45180 Avg QP:18.10 size: 47568
x264 [info]: frame B:119441 Avg QP:20.64 size: 20291
x264 [info]: consecutive B-frames: 5.4% 8.6% 11.2% 24.6% 12.3% 28.1% 3.8% 2.8% 1.2% 1.8% 0.4%
x264 [info]: mb I I16..4: 18.9% 66.7% 14.4%
x264 [info]: mb P I16..4: 3.2% 33.1% 2.2% P16..4: 28.7% 19.1% 10.0% 0.0% 0.0% skip: 3.9%
x264 [info]: mb B I16..4: 0.2% 3.0% 0.2% B16..8: 44.3% 14.7% 4.4% direct: 8.7% skip:24.4% L0:45.0% L1:46.2% BI: 8.9%
x264 [info]: 8x8 transform intra:85.4% inter:62.3%
x264 [info]: direct mvs spatial:99.0% temporal:1.0%
x264 [info]: coded y,uvDC,uvAC intra: 91.2% 80.3% 60.3% inter: 40.8% 28.3% 10.2%
x264 [info]: i16 v,h,dc,p: 42% 20% 19% 19%
x264 [info]: i8 v,h,dc,ddl,ddr,vr,hd,vl,hu: 10% 8% 13% 10% 13% 12% 12% 11% 12%
x264 [info]: i4 v,h,dc,ddl,ddr,vr,hd,vl,hu: 14% 14% 6% 8% 13% 12% 12% 10% 11%
x264 [info]: i8c dc,h,v,p: 42% 25% 18% 15%
x264 [info]: Weighted P-Frames: Y:21.4% UV:12.9%
x264 [info]: ref P L0: 44.4% 8.6% 18.8% 7.8% 5.7% 4.3% 3.2% 1.9% 1.7% 1.5% 1.4% 0.5% 0.1%
x264 [info]: ref B L0: 70.2% 12.5% 7.3% 3.1% 2.4% 1.7% 1.3% 0.8% 0.5% 0.2%
x264 [info]: ref B L1: 91.6% 8.4%
x264 [info]: kb/s:5431.20

x264 [total]: encoded 165768 frames, 3.70 fps, 5431.20 kb/s
--------------------------------------------------------------------------------
Format : Matroska
Format version : Version 2
File size : 5.10 GiB
Duration : 1h 55mn
Overall bit rate : 6 325 Kbps
Movie name : avt83@DHT-Movies
Encoded date : UTC 2012-12-20 10:28:59
Writing application : mkvmerge v4.0.0 ('The Stars were mine') built on Jun 6 2010 16:18:42
Writing library : libebml v1.0.0 + libmatroska v1.0.0

Video
ID : 1
Format : AVC
Format/Info : Advanced Video Codec
Format profile : High@L4.1
Format settings, CABAC : Yes
Format settings, ReFrames : 11 frames
Codec ID : V_MPEG4/ISO/AVC
Duration : 1h 55mn
Bit rate : 5 436 Kbps
Width : 1 280 pixels
Height : 536 pixels
Display aspect ratio : 2.40:1
Frame rate mode : Constant
Frame rate : 23.976 fps
Color space : YUV
Chroma subsampling : 4:2:0
Bit depth : 8 bits
Scan type : Progressive
Bits/(Pixel*Frame) : 0.330
Stream size : 4.27 GiB (84%)
Writing library : x264 core 119 r2106 07efeb4
Encoding settings : cabac=1 / ref=11 / deblock=1:-3:-3 / analyse=0x3:0x113 / me=umh / subme=10 / psy=1 / psy_rd=1.07:0.10 / mixed_ref=1 / me_range=32 / chroma_me=1 / trellis=2 / 8x8dct=1 / cqm=0 / deadzone=21,11 / fast_pskip=0 / chroma_qp_offset=-3 / threads=6 / sliced_threads=0 / nr=0 / decimate=0 / interlaced=0 / bluray_compat=0 / constrained_intra=0 / bframes=10 / b_pyramid=2 / b_adapt=2 / b_bias=0 / direct=3 / weightb=1 / open_gop=0 / weightp=2 / keyint=240 / keyint_min=24 / scenecut=40 / intra_refresh=0 / rc=2pass / mbtree=0 / bitrate=5436 / ratetol=1.0 / qcomp=0.70 / qpmin=0 / qpmax=69 / qpstep=4 / cplxblur=20.0 / qblur=0.5 / ip_ratio=1.40 / pb_ratio=1.30 / aq=1:0.90
Language : English
Default : No
Forced : No

Audio #1
ID : 2
Format : AC-3
Format/Info : Audio Coding 3
Mode extension : CM (complete main)
Format settings, Endianness : Big
Codec ID : A_AC3
Duration : 1h 55mn
Bit rate mode : Constant
Bit rate : 448 Kbps
Channel(s) : 6 channels
Channel positions : Front: L C R, Side: L R, LFE
Sampling rate : 48.0 KHz
Bit depth : 16 bits
Compression mode : Lossy
Stream size : 370 MiB (7%)
Title : Дубляж BD CEE
Language : Russian
Default : Yes
Forced : No

Audio #2
ID : 3
Format : AC-3
Format/Info : Audio Coding 3
Mode extension : CM (complete main)
Format settings, Endianness : Big
Codec ID : A_AC3
Duration : 1h 55mn
Bit rate mode : Constant
Bit rate : 448 Kbps
Channel(s) : 6 channels
Channel positions : Front: L C R, Side: L R, LFE
Sampling rate : 48.0 KHz
Bit depth : 16 bits
Compression mode : Lossy
Stream size : 370 MiB (7%)
Title : Оригинал
Language : English
Default : No
Forced : No

Text #1
ID : 4
Format : UTF-8
Codec ID : S_TEXT/UTF8
Codec ID/Info : UTF-8 Plain Text
Title : full
Language : Russian
Default : Yes
Forced : No

Text #2
ID : 5
Format : UTF-8
Codec ID : S_TEXT/UTF8
Codec ID/Info : UTF-8 Plain Text
Title : full
Language : English
Default : No
Forced : No



Скачать Ультиматум.Борна.The.Bourne.Ultimatum.(Пол.Гринграсс).[2007.боевик.триллер.криминал.BDRip].[720p].[Dub]+[Оригинал]+[Sub].torrent без регистрации
Золото ЗОЛОТАЯ РАЗДАЧА! СКАЧАННОЕ НЕ ЗАСЧИТЫВАЕТСЯ! Золото
Дата: Зарегистрирован   [ Тип: внутренний ] Как тут cкачать?
MAGNET ссылка
MAGNET ссылка


Скачать .torrent

13 KB

Статус: проверено DHT
Скачан: торрент - 194 раз, раздача полностью - 174 раз
Размер: 5,1 GB
Оценка:  5 (Голосов: 1)
Поблагодарили: 5
Поделиться ссылкой на эту раздачу с друзьями:
В контактеFacebookОдноклассникиTwitterLivejournalМой МирLiveinternet
 

 
Показать сообщения:    


Вы не можете начинать темы
Вы не можете отвечать на сообщения
Вы не можете редактировать свои сообщения
Вы не можете удалять свои сообщения
Вы не можете голосовать в опросах
Вы не можете прикреплять файлы к сообщениям
Вы можете скачивать файлы