Loading...
Error

Скачать Тренер Картер / Coach Carter (Томас Картер) [2005, драма, спорт, BDRip-AVC] [MVO]+[VO]+[Sub] торрент без регистрации

 
Статистика раздачи
Размер:  3,76 GB   |    Скачан:  112 раз
Сидов:  1  [  0 KB/s  ]  
 
Автор Сообщение

Marsianka

[] 

Информация о фильме
Название: Тренер Картер
Оригинальное название: Coach Carter
Год выхода: 2005
Жанр: драма, спорт
Режиссер: Томас Картер
В ролях: Сэмюэл Л. Джексон, Роб Браун, Роберт Ричард, Рик Гонзалез, Ченнинг Татум, Ашанти, Тексас Бэттл, Денис Й. Даус, Энтвон Тэннер

О фильме:
Фильм основан на реальной истории, происшедшей в 1999 году в Ричмонде, штат Калифорния. Тренер школьной команды по баскетболу Кен Картер принял в середине сезона беспрецедентное решение, запретив игрокам, не испытавшим еще ни одного поражения, выходить на площадку из-за низкой успеваемости в школе. В итоге команда пропустила две игры в чемпионате, а юным баскетболистам был закрыт доступ в спортзал до тех пор, пока они не стали хорошо учиться. Поступок Картера вызвал одновременно и одобрение, и резкую критику со стороны родителей игроков и школьного руководства. Среди членов команды был и сын тренера, поступивший впоследствии в престижное учебное заведение.




Страна: США, Германия
Студия: Coach Carter, MMDP Munich Movie Development & Production GmbH & Co. Project KG, MTV Films, Tollin/Robbins Productions, Paramount
Продолжительность: 02:16:20
Перевод: Профессиональный (многоголосый закадровый), любительский (одноголосый закадровый)

Файл
Кодек: h264
Качество: BDRip-AVC
Видео: MPEG-4 AVC, 2600 Кбит/с, 1024x430, 23.976 кадр/с

Звук: Русский, английский (AС3, 6 ch, 448 Кбит/с)

Субтитры: Русские, английские

Полное имя : Trener.Karter.2005.x264.BDRip.(AVC).0ptimus.mkv
Формат : Matroska
Версия формата : Version 2
Размер файла : 3,76 Гбайт
Продолжительность : 2 ч. 16 м.
Общий поток : 3946 Кбит/сек
Название фильма : Тренер Картер / Coach Carter [2005] -=BDRip (AVC) by 0ptimus=-
Дата кодирования : UTC 2012-12-20 12:02:29
Программа кодирования : mkvmerge v5.8.0 ('No Sleep / Pillow') built on Sep 2 2012 15:37:04
Библиотека кодирования : libebml v1.2.3 + libmatroska v1.3.0

Видео
Идентификатор : 1
Формат : AVC
Формат/Информация : Advanced Video Codec
Профиль формата : High@L4.1
Параметр CABAC формата : Да
Параметр ReFrames формата : 9 кадров
Идентификатор кодека : V_MPEG4/ISO/AVC
Продолжительность : 2 ч. 16 м.
Битрейт : 2600 Кбит/сек
Ширина : 1024 пикселя
Высота : 430 пикселей
Соотношение сторон : 2,40:1
Режим частоты кадров : Постоянный
Частота кадров : 23,976 кадра/сек
Цветовое пространство : YUV
Субдискретизация насыщенности : 4:2:0
Битовая глубина : 8 бит
Тип развёртки : Прогрессивная
Бит/(Пиксели*Кадры) : 0.246
Размер потока : 2,40 Гбайт (64%)
Заголовок : Rip by 0ptimus
Библиотека кодирования : x264 core 129 r2230 1cffe9f
Настройки программы : cabac=1 / ref=9 / deblock=1:-3:-3 / analyse=0x3:0x113 / me=umh / subme=11 / psy=1 / psy_rd=1.00:0.20 / mixed_ref=1 / me_range=48 / chroma_me=1 / trellis=2 / 8x8dct=1 / cqm=0 / deadzone=21,11 / fast_pskip=0 / chroma_qp_offset=-3 / threads=4 / lookahead_threads=1 / sliced_threads=0 / nr=0 / decimate=0 / interlaced=0 / bluray_compat=0 / constrained_intra=0 / bframes=12 / b_pyramid=2 / b_adapt=2 / b_bias=0 / direct=3 / weightb=1 / open_gop=0 / weightp=2 / keyint=240 / keyint_min=23 / scenecut=40 / intra_refresh=0 / rc_lookahead=40 / rc=2pass / mbtree=0 / bitrate=2600 / ratetol=1.0 / qcomp=0.60 / qpmin=0 / qpmax=69 / qpstep=4 / cplxblur=20.0 / qblur=0.5 / vbv_maxrate=50000 / vbv_bufsize=50000 / nal_hrd=none / ip_ratio=1.40 / pb_ratio=1.30 / aq=1:1.00
Язык : English
Default : Да
Forced : Да

Аудио #1
Идентификатор : 2
Формат : AC-3
Формат/Информация : Audio Coding 3
Расширение режима : CM (complete main)
Параметр Endianness формата : Big
Идентификатор кодека : A_AC3
Продолжительность : 2 ч. 16 м.
Вид битрейта : Постоянный
Битрейт : 448 Кбит/сек
Каналы : 6 каналов
Расположение каналов : Front: L C R, Side: L R, LFE
Частота : 48,0 КГц
Битовая глубина : 16 бит
Метод сжатия : С потерями
Размер потока : 437 Мбайт (11%)
Заголовок : Профессиональный многоголосый
Язык : Russian
Default : Да
Forced : Да

Аудио #2
Идентификатор : 3
Формат : AC-3
Формат/Информация : Audio Coding 3
Расширение режима : CM (complete main)
Параметр Endianness формата : Big
Идентификатор кодека : A_AC3
Продолжительность : 2 ч. 16 м.
Вид битрейта : Постоянный
Битрейт : 448 Кбит/сек
Каналы : 6 каналов
Расположение каналов : Front: L C R, Side: L R, LFE
Частота : 48,0 КГц
Битовая глубина : 16 бит
Метод сжатия : С потерями
Размер потока : 437 Мбайт (11%)
Заголовок : Любительский одноголосый
Язык : Russian
Default : Нет
Forced : Нет

Аудио #3
Идентификатор : 4
Формат : AC-3
Формат/Информация : Audio Coding 3
Расширение режима : CM (complete main)
Параметр Endianness формата : Big
Идентификатор кодека : A_AC3
Продолжительность : 2 ч. 16 м.
Вид битрейта : Постоянный
Битрейт : 448 Кбит/сек
Каналы : 6 каналов
Расположение каналов : Front: L C R, Side: L R, LFE
Частота : 48,0 КГц
Битовая глубина : 16 бит
Метод сжатия : С потерями
Размер потока : 437 Мбайт (11%)
Язык : English
Default : Нет
Forced : Нет

Текст #1
Идентификатор : 5
Формат : UTF-8
Идентификатор кодека : S_TEXT/UTF8
Идентификатор кодека/Информация : UTF-8 Plain Text
Язык : Russian
Default : Нет
Forced : Нет

Текст #2
Идентификатор : 6
Формат : UTF-8
Идентификатор кодека : S_TEXT/UTF8
Идентификатор кодека/Информация : UTF-8 Plain Text
Язык : English
Default : Нет
Forced : Нет

Меню
00:00:00.000 : :Not Team Player
00:04:13.628 : :Accepting the Job
00:08:44.566 : :Contract
00:15:17.542 : :Late for Practice
00:20:12.878 : :Student Athlete
00:24:33.889 : :The Offense Runs
00:32:43.211 : :Another Sister
00:39:18.189 : :Suicides and Push-Ups
00:46:07.640 : :Classroom Performance
00:55:31.703 : :An Apology
00:59:51.379 : :The Dance
01:04:26.488 : :Bayhill Tournament
01:11:49.972 : :The Party
01:18:25.618 : :Report to the Library
01:25:05.517 : :Real Statistics
01:29:53.263 : :Education
01:34:49.058 : :Street Violence
01:39:21.664 : :Lockout Vote
01:45:32.993 : :Progress
01:50:33.752 : :Kenyon and Kyra, Nothing Is As Good
01:54:56.848 : :The Playoffs
02:01:44.130 : :Fourth Quarter

x264 [info]: frame I:1575 Avg QP:16.50 size: 68043
x264 [info]: frame P:44016 Avg QP:19.55 size: 25763
x264 [info]: frame B:150537 Avg QP:21.11 size: 9415
Релиз от: 0ptimus



Скачать Тренер.Картер.Coach.Carter.(Томас.Картер).[2005.драма.спорт.BDRip-AVC].[MVO]+[VO]+[Sub].torrent без регистрации
Золото ЗОЛОТАЯ РАЗДАЧА! СКАЧАННОЕ НЕ ЗАСЧИТЫВАЕТСЯ! Золото
Дата: Зарегистрирован   [ Тип: внутренний ] Как тут cкачать?
MAGNET ссылка
MAGNET ссылка


Скачать .torrent

19 KB

Статус: проверено DHT
Скачан: торрент - 112 раз, раздача полностью - 49 раз
Размер: 3,76 GB
Оценка:  - (Голосов: 0)
Поблагодарили: 0
Поделиться ссылкой на эту раздачу с друзьями:
В контактеFacebookОдноклассникиTwitterLivejournalМой МирLiveinternet
 

 
Показать сообщения:    


Вы не можете начинать темы
Вы не можете отвечать на сообщения
Вы не можете редактировать свои сообщения
Вы не можете удалять свои сообщения
Вы не можете голосовать в опросах
Вы не можете прикреплять файлы к сообщениям
Вы можете скачивать файлы