Loading...
Error

Скачать Мемуары гейши / Memoirs of a Geisha (Роб Маршалл) [2005, драма, мелодрама, BDRip-AVC] [Dub]+[Оригинал]+[Sub] торрент без регистрации

 
Статистика раздачи
Размер:  2,9 GB   |    Скачан:  107 раз
Сидов:  1  [  0 KB/s  ]  
 
Автор Сообщение

Marsianka

[] 

Мемуары гейши / Memoirs of a Geisha (2005) BDRip-AVC

Информация о фильме
Название: Мемуары гейши
Оригинальное название: Memoirs of a Geisha
Год выхода: 2005
Жанр: драма, мелодрама
Режиссер: Роб Маршалл

В ролях: Цзыи Чжан, Сузука Ого, Кен Ватанабе, Коши Якусо, Йоуки Кудо, Ли Гонг, Каори Момой, Тсаи Чин, Зои Вайзенбаум, Кэри-Хироюки Тагава, Кеннет Цан, Рэндолл Дак Ким, Тед Ливайн, Пол Адельштейн, Саманта Фатерман, Томас Икеда, Мишель Йео, Евгения Йуан, Йоко Нарахаши, Карл Йун, Котоко Кавамура

О фильме: Маленькую прелестную девочку из бедной японской семьи отдают в услужение в дом гейш. С годами красавица расцветает и познает все таинства этой профессии. Самые влиятельные мужчины становятся пленниками знаменитой гейши по имени Сайюри, достигшей совершенства в своем искусстве.

Но в сердце Сайюри теплится любовь к тому, над которым ее чары не властны. Тайну своей любовной страсти она доверяет лишь страницам дневника



Страна: США
Продолжительность: 02:25.12
Перевод: Дублированный, Оригинал (Английский)

Файл
Кодек: h.264
Качество: BDRip-AVC
Видео: 1048x436 (2,40:1), 23.976 fps, 2027 kbps, 0.185 bit/pixel
Аудио #1: 48 kHz, AC3 5.1, 448.00 kbps (Русский)
Аудио #2: 48 kHz, AC3 5.1, 384.00 kbps (Английский)
Субтитры: Русские, Английские (отключаемые)

&
Общее
Уникальный идентификатор : 174788908438221842456018290043518869134 (0x837F1E8887DB6955896C7B5EEC3E5E8E)
Полное имя : D:Memoirs of a Geisha.2005.BDRip-AVC.mkv
Формат : Matroska
Версия формата : Version 4 / Version 2
Размер файла : 2,90 Гбайт
Продолжительность : 2 ч. 25 м.
Общий поток : 2861 Кбит/сек
Название фильма : Мемуары гейши / Memoirs of a Geisha (2005) BDRip-AVC rip by Rulya74
Дата кодирования : UTC 2010-02-22 21:41:31
Программа кодирования : mkvmerge v5.9.0 ('On The Loose') built on Dec 9 2012 15:37:01
Библиотека кодирования : libebml v1.3.0 + libmatroska v1.4.0

Видео
Идентификатор : 1
Формат : AVC
Формат/Информация : Advanced Video Codec
Профиль формата : High@L4.1
Параметр CABAC формата : Да
Параметр ReFrames формата : 12 кадров
Идентификатор кодека : V_MPEG4/ISO/AVC
Продолжительность : 2 ч. 25 м.
Битрейт : 2027 Кбит/сек
Ширина : 1048 пикселей
Высота : 436 пикселей
Соотношение сторон : 2,40:1
Частота кадров : 23,976 кадра/сек
Цветовое пространство : YUV
Субдискретизация насыщенности : 4:2:0
Битовая глубина : 8 бит
Тип развёртки : Прогрессивная
Бит/(Пиксели*Кадры) : 0.185
Размер потока : 2,00 Гбайт (69%)
Библиотека кодирования : x264 core 129 r2230 1cffe9f
Настройки программы : cabac=1 / ref=12 / deblock=1:-3:-2 / analyse=0x3:0x133 / me=umh / subme=10 / psy=1 / psy_rd=1.11:0.07 / mixed_ref=1 / me_range=32 / chroma_me=1 / trellis=2 / 8x8dct=1 / cqm=0 / deadzone=21,11 / fast_pskip=0 / chroma_qp_offset=-3 / threads=4 / lookahead_threads=1 / sliced_threads=0 / nr=0 / decimate=1 / interlaced=0 / bluray_compat=0 / constrained_intra=0 / bframes=5 / b_pyramid=2 / b_adapt=2 / b_bias=0 / direct=3 / weightb=1 / open_gop=0 / weightp=2 / keyint=240 / keyint_min=23 / scenecut=40 / intra_refresh=0 / rc_lookahead=40 / rc=2pass / mbtree=1 / bitrate=2027 / ratetol=1.0 / qcomp=0.60 / qpmin=10 / qpmax=51 / qpstep=4 / cplxblur=20.0 / qblur=0.5 / ip_ratio=1.40 / aq=2:1.00
Default : Да
Forced : Нет

Аудио #1
Идентификатор : 2
Формат : AC-3
Формат/Информация : Audio Coding 3
Расширение режима : CM (complete main)
Идентификатор кодека : A_AC3
Продолжительность : 2 ч. 25 м.
Вид битрейта : Постоянный
Битрейт : 448 Кбит/сек
Каналы : 6 каналов
Расположение каналов : Front: L C R, Side: L R, LFE
Частота : 48,0 КГц
Битовая глубина : 16 бит
Метод сжатия : С потерями
Размер потока : 465 Мбайт (16%)
Заголовок : Дублированный
Язык : Russian
Default : Да
Forced : Нет

Аудио #2
Идентификатор : 3
Формат : AC-3
Формат/Информация : Audio Coding 3
Расширение режима : CM (complete main)
Идентификатор кодека : A_AC3
Продолжительность : 2 ч. 25 м.
Вид битрейта : Постоянный
Битрейт : 384 Кбит/сек
Каналы : 6 каналов
Расположение каналов : Front: L C R, Side: L R, LFE
Частота : 48,0 КГц
Битовая глубина : 16 бит
Метод сжатия : С потерями
Размер потока : 399 Мбайт (13%)
Заголовок : Оригинал
Язык : English
Default : Нет
Forced : Нет

Текст #1
Идентификатор : 4
Формат : UTF-8
Идентификатор кодека : S_TEXT/UTF8
Идентификатор кодека/Информация : UTF-8 Plain Text
Язык : Russian
Default : Да
Forced : Нет

Текст #2
Идентификатор : 5
Формат : UTF-8
Идентификатор кодека : S_TEXT/UTF8
Идентификатор кодека/Информация : UTF-8 Plain Text
Язык : English
Default : Нет
Forced : Нет

Меню
00:00:00.000 : :Chapter 01
00:09:41.330 : :Chapter 02
00:16:40.749 : :Chapter 03
00:24:26.756 : :Chapter 04
00:35:17.698 : :Chapter 05
00:47:27.052 : :Chapter 06
00:54:58.003 : :Chapter 07
01:02:46.888 : :Chapter 08
01:08:06.540 : :Chapter 09
01:17:03.035 : :Chapter 10
01:27:49.222 : :Chapter 11
01:36:56.227 : :Chapter 12
01:42:34.273 : :Chapter 13
01:53:26.216 : :Chapter 14
02:03:25.439 : :Chapter 15
02:10:11.136 : :Chapter 16
02:25:07.865 : :Chapter 17



Скачать Мемуары.гейши.Memoirs.of.a.Geisha.(Роб.Маршалл).[2005.драма.мелодрама.BDRip-AVC].[Dub]+[Оригинал]+[Sub].torrent без регистрации
Золото ЗОЛОТАЯ РАЗДАЧА! СКАЧАННОЕ НЕ ЗАСЧИТЫВАЕТСЯ! Золото
Дата: Зарегистрирован   [ Тип: внутренний ] Как тут cкачать?
MAGNET ссылка
MAGNET ссылка


Скачать .torrent

15 KB

Статус: проверено DHT
Скачан: торрент - 107 раз, раздача полностью - 47 раз
Размер: 2,9 GB
Оценка:  5 (Голосов: 1)
Поблагодарили: 2
Поделиться ссылкой на эту раздачу с друзьями:
В контактеFacebookОдноклассникиTwitterLivejournalМой МирLiveinternet
 

 
Показать сообщения:    


Вы не можете начинать темы
Вы не можете отвечать на сообщения
Вы не можете редактировать свои сообщения
Вы не можете удалять свои сообщения
Вы не можете голосовать в опросах
Вы не можете прикреплять файлы к сообщениям
Вы можете скачивать файлы