Loading...
Error

Скачать Барбарелла / Королева Галактики / Barbarella / Queen of the Galaxy (Роже Вадим) [1968, фантастика, фэнтези, боевик, комедия, приключения, BDRip] [MVO]+[Sub] торрент без регистрации

 
Статистика раздачи
Размер:  1,59 GB   |    Скачан:  143 раза
Сидов:  1  [  0 KB/s  ]  
 
Автор Сообщение

Marsianka

[] 

Название: Барбарелла / Королева Галактики
Оригинальное название: Barbarella / Queen of the Galaxy
Год выпуска: 1968
Страна: Франция, Италия
Жанр: фантастика, фэнтези, боевик, комедия, приключения
Продолжительность: 01:38:00
Субтитры: Русские
Режиссер: Роже Вадим

Перевод:
Профессиональный (многоголосый закадровый) - DVD Магия
Профессиональный (многоголосый закадровый) - Somewax

В ролях: Джейн Фонда, Джон Филлип Ло, Анита Палленберг, Майло ОШи, Марсель Марсо, Клод Дофен, Вероник Венделл, Джанкарло Кобелли, Серж Маркан, Катрин Шевалье, Мари Тереза Шевалье, Умберто Ди Грация, Дэвид Хеммингс, Уго Тоньяцци

Описание: Молодой ученый по имени Дюран-Дюран неожиданно исчез в неизведанных окрестностях звезды Тау-Сети по пути на Полярную Звезду. Казалось бы ну и что? Мало ли какие дела могли появиться у уважаемого ученого? Однако Президент Солнечной Системы прекрасно осведомлен, что Дюран-Дюран изобрел такую великую игрушку, как позитронический луч, которая может уничтожить не только Солнечную Систему, но и вообще всю Вселенную. И тогда он призывает на помощь раскрепощенную и страшно красивую искательницу сексуальных приключений, которая странствует по всей Вселенной в 41-м столетии от Рождества Христова. Она встречается с представителями рас и цивилизаций самой разнообразной внешности и несет им всем простую и скромную вещь любовь.



Качество: BDRip (Рип с Blu-Ray Remux 1080p)
Формат: AVI
Видео кодек: XviD
Аудио кодек: АС3
Видео: 720x304 (2.37:1), 23.976 fps, XviD MPEG-4 ~1729 kbps avg, 0.33 bit/pixel
Аудио rus: 48 kHz, AC3 Dolby Digital, 2/0 (L,R) ch, ~192 kbps MVO (DVD Магия)
Аудио rus: 48 kHz, AC3 Dolby Digital, 2/0 (L,R) ch, ~192 kbps MVO (Somewax)
Аудио eng: 48 kHz, AC3 Dolby Digital, 2/0 (L,R) ch, ~192 kbps ENG (отдельно)
Формат субтитров: softsub (SRT)
Формат : AVI
Формат/Информация : Audio Video Interleave
Размер файла : 1,46 Гбайт
Продолжительность : 1 ч. 38 м.
Общий поток : 2129 Кбит/сек
Название фильма : Барбарелла
Режиссёр : derdevil13
Программа кодирования : VirtualDubMod 1.5.10.2 (build 2542/release)

Видео
Идентификатор : 0
Формат : MPEG-4 Visual
Профиль формата : Advanced Simple@L5
Параметр BVOP формата : 1
Параметр QPel формата : Нет
Параметр GMC формата : Без точки перехода
Параметр матрицы формата : Выборочная
Режим смешивания : Сжатый битовый поток
Идентификатор кодека : XVID
Идентификатор кодека/Подсказка : XviD
Продолжительность : 1 ч. 38 м.
Битрейт : 1730 Кбит/сек
Ширина : 720 пикс.
Высота : 304 пикс.
Соотношение сторон : 2,35:1
Частота кадров : 23,976 кадр/сек
Цветовое пространство : YUV
Подвыборка цветности : 4:2:0
Битовая глубина : 8 бит
Тип развёртки : Прогрессивная
Метод сжатия : С потерями
Бит/(Пиксели*Кадры) : 0.330
Размер потока : 1,18 Гбайт (81%)
Библиотека кодирования : XviD 65

Аудио #1
Идентификатор : 1
Формат : AC-3
Формат/Информация : Audio Coding 3
Расширение режима : CM (complete main)
Идентификатор кодека : 2000
Продолжительность : 1 ч. 38 м.
Вид битрейта : Постоянный
Битрейт : 192 Кбит/сек
Каналы : 2 канала
Расположение каналов : Front: L R
Частота : 48,0 КГц
Битовая глубина : 16 бит
Метод сжатия : С потерями
Размер потока : 135 Мбайт (9%)
Выравнивание : Разделение по промежуткам
Продолжительность промежутка : 42 мс. (1,00 видеокадр)
Время предзагрузки промежутка : 500 ms

Аудио #2
Идентификатор : 2
Формат : AC-3
Формат/Информация : Audio Coding 3
Расширение режима : CM (complete main)
Идентификатор кодека : 2000
Продолжительность : 1 ч. 38 м.
Вид битрейта : Постоянный
Битрейт : 192 Кбит/сек
Каналы : 2 канала
Расположение каналов : Front: L R
Частота : 48,0 КГц
Битовая глубина : 16 бит
Метод сжатия : С потерями
Размер потока : 135 Мбайт (9%)
Выравнивание : Разделение по промежуткам
Продолжительность промежутка : 42 мс. (1,00 видеокадр)
Время предзагрузки промежутка : 500 ms
Релиз от: All Films



Скачать Барбарелла.Королева.Галактики.Barbarella.Queen.of.the.Galaxy.(Роже.Вадим).[1968.фантастика.фэнтези.боевик.комедия.приключения.BDRip].[MVO]+[Sub].torrent без регистрации
Золото ЗОЛОТАЯ РАЗДАЧА! СКАЧАННОЕ НЕ ЗАСЧИТЫВАЕТСЯ! Золото
Дата: Зарегистрирован   [ Тип: внутренний ] Как тут cкачать?
MAGNET ссылка
MAGNET ссылка


Скачать .torrent

16 KB

Статус: проверено DHT
Скачан: торрент - 143 раз, раздача полностью - 35 раз
Размер: 1,59 GB
Оценка:  - (Голосов: 0)
Поблагодарили: 4
Поделиться ссылкой на эту раздачу с друзьями:
В контактеFacebookОдноклассникиTwitterLivejournalМой МирLiveinternet
 

 
Показать сообщения:    


Вы не можете начинать темы
Вы не можете отвечать на сообщения
Вы не можете редактировать свои сообщения
Вы не можете удалять свои сообщения
Вы не можете голосовать в опросах
Вы не можете прикреплять файлы к сообщениям
Вы можете скачивать файлы