Loading...
Error

Скачать Фантоцци 2000. Клонирование / Fantozzi 2000 - la clonazione (Доменико Сарвени) [1999, Комедия, DVDRip] [MVO] торрент без регистрации

 
Статистика раздачи
Размер:  1,23 GB   |    Скачан:  184 раза

Полного источника не было: 25 минут

 
Автор Сообщение

dezertir

[] 


Фантоцци 2000. Клонирование / Fantozzi 2000 - la clonazione


Год выпуска: 1999
Выпущено: Италия
Жанр: Комедия
Продолжительность: 01:33:48
Перевод: Профессиональный многоголосый (закадровый)
Субтитры: Нет

Режиссер: Доменико Сарвени

В ролях: Паоло Вилладжо, Милена Вукотич, Анна Маццамауро, Паоло Паолони, Доди Конти, Стефано Маскиарелли, Мирта Пепе, Ирма Капече Минутоло, Альдо Ралли, Эвелина Гори, Ленка Ланчи, Гуидо Никели, Серджо Форкони, Клаудио Риччи, Лоренцо Виззини, Якопо Сарно, Симоне Аскани, Клаудио Альфонси, Стефано Антонуччи, Алессандро Бенчивенни, Алессандра Алберти, Джино Кольяндро, Лучана Де Фалько, Серена Дамиани, Массимилиано Делгадо, Джанни Фантони, Валерио Исидоре

Описание: Руководство Мега-Фирмы обеспокоено тем, что сотрудники совершенно выбились из-под контроля. Вдруг они вспоминают про самого услужливого и исполнительно работника — бухгалтера Уго Фантоцци. Они решают пригласить его снова на работу, но вот беда — он умер несколько лет назад. Но руководство компании это не останавливает. С помощью новейших технологий, используя волосы покойного бухгалтера, ученые создают клона, ничем не отличающегося от покойника. Фантоцци узнает свою жену, своего директора и со следующего же дня ревностно принимается исполнять свои служебные, обязанности. Но судьба готовит ему ряд за другим несколько сюрпризов — отдых в закрытом приюте для детей миллионеров, длительная эпопея с лотерейным билетом, чуть было не стоившая бухгалтеру семейного счастья, проблемы с внезапно приехавшей погостить к бабушке с дедушкой дорогой, но довольно таки взрослой внучкой, неожиданное приглашение на новогодний банкет к графине и даже встреча с инопланетянином...






Качество: DVDRip
Формат: AVI
Видео кодек: DivX
Аудио кодек: AC3
Видео: DivX 5, 1682 Кбит/с, 704x448, 25 fps
Аудио: АС3, 2 ch, 192 Кбит/с



General
Complete name : D:Fantozzi.2000.Klonirovanie.1999.DivX.DVDRip.avi
Format : AVI
Format/Info : Audio Video Interleave
File size : 1.23 GiB
Duration : 1h 33mn
Overall bit rate : 1 883 Kbps
Writing application : VirtualDubModRus 1.5.10.2 (build 2542/release)
Writing library : VirtualDubMod build 2542/release

Video
ID : 0
Format : MPEG-4 Visual
Format settings, BVOP : 1
Format settings, QPel : No
Format settings, GMC : No warppoints
Format settings, Matrix : Default (H.263)
Muxing mode : Packed bitstream
Codec ID : DX50
Codec ID/Hint : DivX 5
Duration : 1h 33mn
Bit rate : 1 682 Kbps
Width : 704 pixels
Height : 448 pixels
Display aspect ratio : 1.571
Frame rate : 25.000 fps
Color space : YUV
Chroma subsampling : 4:2:0
Bit depth : 8 bits
Scan type : Progressive
Compression mode : Lossy
Bits/(Pixel*Frame) : 0.213
Stream size : 1.10 GiB (89%)
Writing library : DivX 6.8.5 (UTC 2009-08-20)

Audio
ID : 1
Format : AC-3
Format/Info : Audio Coding 3
Mode extension : CM (complete main)
Format settings, Endianness : Big
Codec ID : 2000
Duration : 1h 33mn
Bit rate mode : Constant
Bit rate : 192 Kbps
Channel(s) : 2 channels
Channel positions : Front: L R
Sampling rate : 48.0 KHz
Bit depth : 16 bits
Compression mode : Lossy
Stream size : 128 MiB (10%)
Alignment : Split accross interleaves
Interleave, duration : 40 ms (1.00 video frame)
Interleave, preload duration : 500 ms





Скачать Фантоцци.2000.Клонирование.Fantozzi.2000.-.la.clonazione.(Доменико.Сарвени).[1999.Комедия.DVDRip].[MVO].torrent без регистрации
Золото ЗОЛОТАЯ РАЗДАЧА! СКАЧАННОЕ НЕ ЗАСЧИТЫВАЕТСЯ! Золото
Дата: Зарегистрирован   [ Тип: внутренний ] Как тут cкачать?
MAGNET ссылка
MAGNET ссылка


Скачать .torrent

13 KB

Статус: проверено DHT
Скачан: торрент - 184 раз, раздача полностью - 158 раз
Размер: 1,23 GB
Оценка:  - (Голосов: 0)
Поблагодарили: 4
Поделиться ссылкой на эту раздачу с друзьями:
В контактеFacebookОдноклассникиTwitterLivejournalМой МирLiveinternet
 

 
Показать сообщения:    


Вы не можете начинать темы
Вы не можете отвечать на сообщения
Вы не можете редактировать свои сообщения
Вы не можете удалять свои сообщения
Вы не можете голосовать в опросах
Вы не можете прикреплять файлы к сообщениям
Вы можете скачивать файлы