Loading...
Error

Скачать Пьяный мастер 2. Легенда о пьяном мастере / The Legend of Drunken Master / Jui kuen II (Лю Чялян, Джеки Чан) [1994, боевик, комедия, HDRip] [MVO] торрент без регистрации

 
Статистика раздачи
Размер:  745 MB   |    Скачан:  152 раза
Сидов:  1  [  0 KB/s  ]  
 
Автор Сообщение

Marsianka

[] 

Информация о фильме
Название: Пьяный мастер 2. Легенда о пьяном мастере
Оригинальное название: The Legend of Drunken Master / Jui kuen II
Год выхода: 1994
Жанр: боевик, комедия
Режиссер: Лю Чялян, Джеки Чан
В ролях: Джеки Чан, Ланг Ти, Анита Муи, Феликс Вонг, Чиа-Лянг Лиу, Кен Ло, Кар Лок Чин, Ху Сунг Пак, Чи-Квонг Чеунг, Йи Сан Хон, Энди Лау, Чиа Юнг Лью, Сиу-Минг Лау, Суки Кван, Вэй Йи Чан, Син Вонг, Квок Куэнь Чан, По Тай, Куи Йинг Чан, Фонг Пао

О фильме:
Пьяный мастер возвращается, его стиль становится еще более отточенным и смешным! Возвращаясь домой из шопинг-тура вместе со своим отцом, знаменитый «пьяный мастер» Вонг-Фей Хунг оказывается вовлеченным в потасовку между иностранцами, пытающимися вывезти из Китая ценные древние реликвии, и патриотами, которые хотят помешать вывозу этих предметов из страны.
К сожалению, отец Вонг-Фей Хунга никогда не занимался ни одним из видов спорта, кроме пьяных драк, поэтому герою приходится сражаться практически одному против толпы. Но как всегда его удивительный стиль боя помогает ему расправиться с многочисленными врагами.



Страна: Гонконг
Продолжительность: 01:42:30
Перевод: Профессиональный (многоголосый закадровый) Телеканал СТС

Файл
Кодек: XviD
Качество: HDRip
Видео: 672x288, 23.976 fps, 879 Kbps, 0.189 Bits/Pixel
Звук: MP3, 48 KHz, 128 Kbps, 2 channels

Семпл
General
Complete name : D:P'janyj.master.2.Legenda.o.p'janom.mastere.1994.HDRip.XviD.744mb.avi
Format : AVI
Format/Info : Audio Video Interleave
File size : 745 MiB
Duration : 1h 42mn
Overall bit rate : 1 016 Kbps
Writing application : VirtualDubMod 1.5.10.2 (build 2540/release)
Writing library : VirtualDubMod build 2540/release
Video
ID : 0
Format : MPEG-4 Visual
Format profile : Advanced Simple@L5
Format settings, BVOP : 2
Format settings, QPel : No
Format settings, GMC : No warppoints
Format settings, Matrix : Default (H.263)
Muxing mode : Packed bitstream
Codec ID : XVID
Codec ID/Hint : XviD
Duration : 1h 42mn
Bit rate : 879 Kbps
Width : 672 pixels
Height : 288 pixels
Display aspect ratio : 2.35:1
Frame rate : 23.976 fps
Color space : YUV
Chroma subsampling : 4:2:0
Bit depth : 8 bits
Scan type : Progressive
Compression mode : Lossy
Bits/(Pixel*Frame) : 0.189
Stream size : 644 MiB (86%)
Writing library : XviD 1.2.1 (UTC 2008-12-04)
Audio
ID : 1
Format : MPEG Audio
Format version : Version 1
Format profile : Layer 3
Codec ID : 55
Codec ID/Hint : MP3
Duration : 1h 42mn
Bit rate mode : Constant
Bit rate : 128 Kbps
Channel(s) : 2 channels
Sampling rate : 48.0 KHz
Compression mode : Lossy
Stream size : 93.8 MiB (13%)
Alignment : Aligned on interleaves
Interleave, duration : 42 ms (1.00 video frame)
Interleave, preload duration : 504 ms
Writing library : LAME3.98r
Encoding settings : -m s -V 4 -q 2 -lowpass 17 -b 128











Скачать Пьяный.мастер.2.Легенда.о.пьяном.мастере.The.Legend.of.Drunken.Master.Jui.kuen.II.(Лю.Чялян.Джеки.Чан).[1994.боевик.комедия.HDRip].[MVO].torrent без регистрации
Золото ЗОЛОТАЯ РАЗДАЧА! СКАЧАННОЕ НЕ ЗАСЧИТЫВАЕТСЯ! Золото
Дата: Зарегистрирован   [ Тип: внутренний ] Как тут cкачать?
MAGNET ссылка
MAGNET ссылка


Скачать .torrent

15 KB

Статус: проверено DHT
Скачан: торрент - 152 раз, раздача полностью - 56 раз
Размер: 745 MB
Оценка:  5 (Голосов: 1)
Поблагодарили: 2
Поделиться ссылкой на эту раздачу с друзьями:
В контактеFacebookОдноклассникиTwitterLivejournalМой МирLiveinternet
 

 
Показать сообщения:    


Вы не можете начинать темы
Вы не можете отвечать на сообщения
Вы не можете редактировать свои сообщения
Вы не можете удалять свои сообщения
Вы не можете голосовать в опросах
Вы не можете прикреплять файлы к сообщениям
Вы можете скачивать файлы