Loading...
Error

Скачать Дурочка / La dama boba (Мануэль Иборра) [2006, комедия, DVDRip-AVC] [MVO]+[DVO] торрент без регистрации

 
Статистика раздачи
Размер:  1,45 GB   |    Скачан:  109 раз
Сидов:  1  [  0 KB/s  ]  
 
Автор Сообщение

Marsianka

[] 

Дурочка / La dama boba (2006) DVDRip-AVC

Информация о фильме
Название: Дурочка
Оригинальное название: La dama boba
Год выхода: 2006
Жанр: комедия
Режиссер: Мануэль Иборра

В ролях: Сильвия Абаскал, Кристина Колладо, Хосе Коронадо, Антонио Де Ла Фуэнте, Хуан Диаз, Вероника Форке , Макарена Гомес, Пако Леон, Антонио Ресинес, Хосе Мария Сакристан

О фильме: В знатном мадридском доме грозная и заботливая мать Октавиа готовит к замужеству двух дочерей. Обе со странностями: старшая Ниса красотой не удалась, но читает поэтов, и с их помощью познала и чувства, и жизнь. Младшая, Финея милашка, но слывет круглой дурой на всю Испанию выучить не то что стихотворение, а сам алфавит ей не под силу.

Но мать не унывает: за Финеей приданое в сорок тысяч дукатов. В борьбе за Нису и Финею скрестят шпаги небедствующий чего стоят одни его шляпы красавчик Лисео, и небогатый зато как владеет оружием и словом дворянин Лауренсио. На пути к счастливому финалу Лисео и Лауренсио не раз поменяют свои симпатии, а сестры тем временем преобразятся: Ниса, отупев, чуть не сойдет с ума от ревности, а Финея освоит грамоту и расцветет.



Страна: Испания
Продолжительность: 01:33:56
Перевод: Профессиональный (многоголосый закадровый) Культура, Профессиональный (двухголосый закадровый) RUSCICO

Файл
Кодек: h.264
Качество: DVDRip-AVC
Видео: 720x320 @ 769x320 (2,40:1), 25,000 fps, 1824 kbps, 0.317 bit/pixel
Аудио #1: 48 kHz, AC3 2.0, 192.00 kbps (Культура)
Аудио #2: 48 kHz, AC3 2.0, 192.00 kbps (RUSCICO)

&
Общее
Уникальный идентификатор : 227505470080216390644454203778741435988 (0xAB27F5B11F95E77C94A468D43ED5FE54)
Полное имя : D:La dama boba.2006.DVDRip-AVC.mkv
Формат : Matroska
Версия формата : Version 4 / Version 2
Размер файла : 1,45 Гбайт
Продолжительность : 1 ч. 33 м.
Общий поток : 2209 Кбит/сек
Название фильма : Дурочка / La dama boba (2006) DVDRip-AVC rip by Rulya74
Дата кодирования : UTC 2010-02-22 21:41:31
Программа кодирования : mkvmerge v5.9.0 ('On The Loose') built on Dec 9 2012 15:37:01
Библиотека кодирования : libebml v1.3.0 + libmatroska v1.4.0

Видео
Идентификатор : 1
Формат : AVC
Формат/Информация : Advanced Video Codec
Профиль формата : High@L4.1
Параметр CABAC формата : Да
Параметр ReFrames формата : 10 кадров
Идентификатор кодека : V_MPEG4/ISO/AVC
Продолжительность : 1 ч. 33 м.
Битрейт : 1824 Кбит/сек
Ширина : 720 пикселей
Высота : 320 пикселей
Соотношение сторон : 2,40:1
Соотношение сторон в оригинале : 2,40:1
Частота кадров : 25,000 кадров/сек
Цветовое пространство : YUV
Субдискретизация насыщенности : 4:2:0
Битовая глубина : 8 бит
Тип развёртки : Прогрессивная
Бит/(Пиксели*Кадры) : 0.317
Размер потока : 1,17 Гбайт (81%)
Библиотека кодирования : x264 core 129 r2230 1cffe9f
Настройки программы : cabac=1 / ref=10 / deblock=1:-1:-1 / analyse=0x3:0x133 / me=umh / subme=9 / psy=1 / psy_rd=1.06:0.05 / mixed_ref=1 / me_range=32 / chroma_me=1 / trellis=2 / 8x8dct=1 / cqm=0 / deadzone=21,11 / fast_pskip=0 / chroma_qp_offset=-3 / threads=2 / lookahead_threads=1 / sliced_threads=0 / nr=0 / decimate=1 / interlaced=0 / bluray_compat=0 / constrained_intra=0 / bframes=6 / b_pyramid=2 / b_adapt=2 / b_bias=0 / direct=3 / weightb=1 / open_gop=0 / weightp=2 / keyint=250 / keyint_min=25 / scenecut=40 / intra_refresh=0 / rc_lookahead=40 / rc=2pass / mbtree=1 / bitrate=1824 / ratetol=1.0 / qcomp=0.60 / qpmin=10 / qpmax=51 / qpstep=4 / cplxblur=20.0 / qblur=0.5 / ip_ratio=1.40 / aq=2:1.00
Default : Да
Forced : Нет

Аудио #1
Идентификатор : 2
Формат : AC-3
Формат/Информация : Audio Coding 3
Расширение режима : CM (complete main)
Идентификатор кодека : A_AC3
Продолжительность : 1 ч. 33 м.
Вид битрейта : Постоянный
Битрейт : 192 Кбит/сек
Каналы : 2 канала
Расположение каналов : Front: L R
Частота : 48,0 КГц
Битовая глубина : 16 бит
Метод сжатия : С потерями
Размер потока : 129 Мбайт (9%)
Заголовок : Многоголосый закадровый (Культура)
Язык : Russian
Default : Да
Forced : Нет

Аудио #2
Идентификатор : 3
Формат : AC-3
Формат/Информация : Audio Coding 3
Расширение режима : CM (complete main)
Идентификатор кодека : A_AC3
Продолжительность : 1 ч. 33 м.
Вид битрейта : Постоянный
Битрейт : 192 Кбит/сек
Каналы : 2 канала
Расположение каналов : Front: L R
Частота : 48,0 КГц
Битовая глубина : 16 бит
Метод сжатия : С потерями
Размер потока : 129 Мбайт (9%)
Заголовок : Двухголосый закадровый (RUSCICO)
Язык : Russian
Default : Нет
Forced : Нет



Скачать Дурочка.La.dama.boba.(Мануэль.Иборра).[2006.комедия.DVDRip-AVC].[MVO]+[DVO].torrent без регистрации
Золото ЗОЛОТАЯ РАЗДАЧА! СКАЧАННОЕ НЕ ЗАСЧИТЫВАЕТСЯ! Золото
Дата: Зарегистрирован   [ Тип: внутренний ] Как тут cкачать?
MAGNET ссылка
MAGNET ссылка


Скачать .torrent

15 KB

Статус: проверено DHT
Скачан: торрент - 109 раз, раздача полностью - 2 раз
Размер: 1,45 GB
Оценка:  - (Голосов: 0)
Поблагодарили: 0
Поделиться ссылкой на эту раздачу с друзьями:
В контактеFacebookОдноклассникиTwitterLivejournalМой МирLiveinternet
 

 
Показать сообщения:    


Вы не можете начинать темы
Вы не можете отвечать на сообщения
Вы не можете редактировать свои сообщения
Вы не можете удалять свои сообщения
Вы не можете голосовать в опросах
Вы не можете прикреплять файлы к сообщениям
Вы можете скачивать файлы