Loading...
Error

Скачать Мои ночи прекраснее ваших дней / Mes nuits sont plus belles que vos jours (Анджей Жулавски) [1989, драма, мелодрама, BDRip-AVC] [MVO] торрент без регистрации

 
Статистика раздачи
Размер:  1,45 GB   |    Скачан:  115 раз
Сидов:  1  [  0 KB/s  ]  
 
Автор Сообщение

Marsianka

[] 

Мои ночи прекраснее ваших дней / Mes nuits sont plus belles que vos jours (1989) BDRip-AVC

Информация о фильме
Название: Мои ночи прекраснее ваших дней
Оригинальное название: Mes nuits sont plus belles que vos jours
Год выхода: 1989
Жанр: драма, мелодрама
Режиссер: Анджей Жулавски

В ролях: Софи Марсо, Жак Дютрон, Валери Лагранж, Мириам Мезьер, Лор Киллинг, Франсуа Шометт, Сади Реббо, Салим Тальби, Жан-Пьер Эбрар, Майкл Голдман

О фильме: Люка, гений-компьютерщик, страдает от неизвестной смертельной болезни, вследствие которой он теряет память. Он встречается с Бланш, молодой женщиной, которая неспособна порвать со своим порочным окружением. Для них обоих начинается короткий, но насыщенный период страсти, так как они понимают, что их дни вместе сочтены.



Страна: Франция
Продолжительность: 01:50:14
Перевод: Профессиональный (Многоголосый закадровый) | Синима Престиж

Файл
Кодек: h.264
Качество: BDRip-AVC
Видео: 1024x546 (1,875), 23,976 fps, 1690 kbps, 0.126 bit/pixel
Звук: 48 kHz, AC3, 2/0 (L,R) ch, 192.00 kbps

&
Общее
Уникальный идентификатор : 171106442750261877199239262289704005986 (0x80B9E6F512EB2E51890CB54707D03162)
Полное имя : D:Mes nuits sont plus belles que vos jours.1989.BDRip-AVC.mkv
Формат : Matroska
Версия формата : Version 4 / Version 2
Размер файла : 1,45 Гбайт
Продолжительность : 1 ч. 50 м.
Общий поток : 1884 Кбит/сек
Название фильма : Мои ночи прекраснее ваших дней / Mes nuits sont plus belles que vos jours (1989) BDRip-AVC rip by Rulya74
Дата кодирования : UTC 2010-02-22 21:41:31
Программа кодирования : mkvmerge v5.9.0 ('On The Loose') built on Dec 9 2012 15:37:01
Библиотека кодирования : libebml v1.3.0 + libmatroska v1.4.0

Видео
Идентификатор : 1
Формат : AVC
Формат/Информация : Advanced Video Codec
Профиль формата : High@L4.1
Параметр CABAC формата : Да
Параметр ReFrames формата : 12 кадров
Идентификатор кодека : V_MPEG4/ISO/AVC
Продолжительность : 1 ч. 50 м.
Битрейт : 1690 Кбит/сек
Ширина : 1024 пикселя
Высота : 546 пикселей
Соотношение сторон : 1,875
Частота кадров : 23,976 кадра/сек
Цветовое пространство : YUV
Субдискретизация насыщенности : 4:2:0
Битовая глубина : 8 бит
Тип развёртки : Прогрессивная
Бит/(Пиксели*Кадры) : 0.126
Размер потока : 1,27 Гбайт (88%)
Библиотека кодирования : x264 core 129 r2230 1cffe9f
Настройки программы : cabac=1 / ref=12 / deblock=1:-3:-2 / analyse=0x3:0x133 / me=umh / subme=10 / psy=1 / psy_rd=1.09:0.07 / mixed_ref=1 / me_range=40 / chroma_me=1 / trellis=2 / 8x8dct=1 / cqm=0 / deadzone=21,11 / fast_pskip=0 / chroma_qp_offset=-3 / threads=2 / lookahead_threads=1 / sliced_threads=0 / nr=0 / decimate=1 / interlaced=0 / bluray_compat=0 / constrained_intra=0 / bframes=7 / b_pyramid=2 / b_adapt=2 / b_bias=0 / direct=3 / weightb=1 / open_gop=0 / weightp=2 / keyint=240 / keyint_min=23 / scenecut=40 / intra_refresh=0 / rc_lookahead=40 / rc=2pass / mbtree=1 / bitrate=1690 / ratetol=1.0 / qcomp=0.60 / qpmin=10 / qpmax=51 / qpstep=4 / cplxblur=20.0 / qblur=0.5 / ip_ratio=1.40 / aq=2:1.00
Default : Да
Forced : Нет

Аудио
Идентификатор : 2
Формат : AC-3
Формат/Информация : Audio Coding 3
Расширение режима : CM (complete main)
Идентификатор кодека : A_AC3
Продолжительность : 1 ч. 50 м.
Вид битрейта : Постоянный
Битрейт : 192 Кбит/сек
Каналы : 2 канала
Расположение каналов : Front: L R
Частота : 48,0 КГц
Битовая глубина : 16 бит
Метод сжатия : С потерями
Размер потока : 151 Мбайт (10%)
Заголовок : Многоголосый закадровый (Синима Престиж)
Язык : Russian
Default : Да
Forced : Нет



Скачать Мои.ночи.прекраснее.ваших.дней.Mes.nuits.sont.plus.belles.que.vos.jours.(Анджей.Жулавски).[1989.драма.мелодрама.BDRip-AVC].[MVO].torrent без регистрации
Золото ЗОЛОТАЯ РАЗДАЧА! СКАЧАННОЕ НЕ ЗАСЧИТЫВАЕТСЯ! Золото
Дата: Зарегистрирован   [ Тип: внутренний ] Как тут cкачать?
MAGNET ссылка
MAGNET ссылка


Скачать .torrent

15 KB

Статус: проверено DHT
Скачан: торрент - 115 раз, раздача полностью - 134 раз
Размер: 1,45 GB
Оценка:  - (Голосов: 0)
Поблагодарили: 0
Поделиться ссылкой на эту раздачу с друзьями:
В контактеFacebookОдноклассникиTwitterLivejournalМой МирLiveinternet
 

 
Показать сообщения:    


Вы не можете начинать темы
Вы не можете отвечать на сообщения
Вы не можете редактировать свои сообщения
Вы не можете удалять свои сообщения
Вы не можете голосовать в опросах
Вы не можете прикреплять файлы к сообщениям
Вы можете скачивать файлы