Loading...
Error

Скачать Грань / Fringe (Сезон 5, серии 1-13 из 13) (Алекс Грейвс и др.) [ 2012-2013, Драма, Ужасы, Детектив, Фантастика, Триллер , WEBDLRip-AVC 720р] [DD5.1] [MVO] [LostFilm] торрент без регистрации

 
Статистика раздачи
Размер:  14,02 GB   |    Скачан:  455 раз
Сидов:  2  [  0 KB/s  ]  
 
Автор Сообщение

Nikolai.Baranov

[] 








Год выпуска: 2012-2013
Выпущено: США , Канада ,20th Century Fox Television
Жанр: Драма, Ужасы, Детектив, Фантастика, Триллер
Продолжительность: 00:44:00
Сезон: 5
Серии: 1-13
Количество серий в сезоне: 13
Озвучка:Профессиональная многоголосая закадровая(LostFilm)
Субтитры: Нет

Официальный сайт



Режиссер: Алекс Грейвс и др.

В ролях: Анна Торв, Джошуа Джексон, Лэнс Реддик, Блэр Браун, Джесика Николь, Джон Ноубл, Кирк Асеведо, Майкл Серверис, Марк Вэлли, Эри Грейнор и др.

Описание: О сериале "За Гранью"Агент ФБР Оливия Данэм расследует гибель всех пассажиров авиарейса следующего из Гамбурга в Бостон.
В ходе расследования ранен её напарник Джон Скотт. В отчаянии Оливия понимает, что ей может помочь доктор Уолтер Бишоп, который находится в психиатрической лечебнице. Поговорить с ним можно только при участии его сына Питера.Оливия продолжает расследование и знакомится с Ниной Шарп, влиятельным руководителем.
Вместе Оливия, Питер и доктор Бишоп начнут раскрывать тайны случившегося с рейсом 627 и сделают первый шаг на пути к осознанию истины, которая находится за гранью нашего понимания.


Качество : WEB-DLRip-AVC 720p
Формат: MPEG-4
Видео кодек: H264
Видео: 3108Кбит/сек,1280х720(16.9),в 25.000кадр/сек,AVC(Baseline@L3.1)(1Ref Frames)
Аудио кодек: AAC
Аудио Russian Dolby Digital 5.1:456Кбит/сек,44.1КГц,6каналов,AAC,(Version4)(LC)


Звуковая дорожка сделана путем наложения чистого голоса озвучивателей на центральный канал оригинальной дорожки. Качество идентично звуковой дорожке.



1. Мгновенный Объединитель Мыслей Модель-11 (Transilience Thought Unifier Model-11)
2. В отсутствие (In Absentia)
3. Писатель (The Recordist)
4. Пуля, которая спасла мир (The Bullet That Saved the World)
5. История возникновения (An Origin Story)
6. Уолтер в Зазеркалье (Through the Looking Glass and What Walter Found There)
7. Пять-двадцать-десять (Five-Twenty-Ten)
8. Человеческий род (The Human Kind)
9. Чёрная марка (Black Blotter)
10. Аномалия XB-6783746 (Anomaly XB-6783746)
11 Мальчик должен жить (The Boy Must Live)
12 Свобода (Liberty)
13 Враг судьбы (An Enemy of Fate)



Общее
Полное имя : F:\К И Н О\С Е Р И А Л Ы\Г Р А Н Ь\Fringe_S05_rus[LostFilm.TV]_DD5.1_x264_Nikolai.Baranov_WEB-DLRip-AVC_(720p)\Fringe_S05Е01_2012_rus[LostFilm.TV]_DD5.1_x264_Nikolai.Baranov_WEB-DLRip-AVC_(720p).mp4
Формат : MPEG-4
Профиль формата : Base Media
Идентификатор кодека : isom
Размер файла : 1,09 Гбайт
Продолжительность : 43 м.
Режим общего битрейта : Переменный
Общий поток : 3568 Кбит/сек
Дата кодирования : UTC 2012-12-20 14:44:55
Дата пометки : UTC 2012-12-20 14:44:55
Программа кодирования : Lavf51.12.1

Видео
Идентификатор : 1
Формат : AVC
Формат/Информация : Advanced Video Codec
Профиль формата : Baseline@L3.1
Параметр CABAC формата : Нет
Параметр ReFrames формата : 1 кадр
Параметр GOP формата : M=1, N=12
Идентификатор кодека : avc1
Идентификатор кодека/Информация : Advanced Video Coding
Продолжительность : 43 м.
Вид битрейта : Переменный
Битрейт : 3108 Кбит/сек
Максимальный битрейт : 4500 Кбит/сек
Ширина : 1280 пикселей
Высота : 720 пикселей
Соотношение сторон : 16:9
Режим частоты кадров : Постоянный
Частота кадров : 25,000 кадров/сек
Частота кадров в оригинале : 24,000 кадра/сек
Цветовое пространство : YUV
Субдискретизация насыщенности : 4:2:0
Битовая глубина : 8 бит
Тип развёртки : Прогрессивная
Бит/(Пиксели*Кадры) : 0.135
Размер потока : 968 Мбайт (87%)
Дата кодирования : UTC 2012-12-20 14:44:55
Дата пометки : UTC 2012-12-20 14:44:55

Аудио
Идентификатор : 2
Формат : AAC
Формат/Информация : Advanced Audio Codec
Профиль формата : LC
Идентификатор кодека : 40
Продолжительность : 43 м.
Вид битрейта : Переменный
Битрейт : 455 Кбит/сек
Каналы : 6 каналов
Расположение каналов : Front: L C R, Side: L R, LFE
Частота : 44,1 КГц
Метод сжатия : С потерями
Размер потока : 142 Мбайт (13%)
Дата кодирования : UTC 2012-12-20 14:44:55
Дата пометки : UTC 2012-12-20 14:44:55








1. Открыть торрент
2. Снять галки с тех файлов торрента, которые мы не хотим закачивать. Оставляем только на нужных нам файлах (файле).
3. Нажать О.К.

В клиенте utorrent

Инструкция

1) Открыть торрент


2) Снять галки с тех файлов торрента, которые мы не хотим закачивать:

* либо вручную, снимая с каждого файла галку( скрин №1)
* либо, нажав кнопку "Снять метки (Select None)", сняв сразу со всех файлов(скрин №2)
№1

№2

Оставляем только на нужных нам файлах (файле).

3)Нажать О.К


Внимание!!! 23.01. 2013. РАЗДАЧА ОБНОВЛЕНА.ОБНОВИТЕ ТОРЕНТ ФАЙЛ.ПРИЯТНОГО ПРОСМОТРА.

Релиз от: Nikolai.Baranov








Скачать Грань.Fringe.(Сезон.5.серии.1-13.из.13).(Алекс.Грейвс.и.др.).[.2012-2013.Драма.Ужасы.Детектив.Фантастика.Триллер.WEBDLRip-AVC.720р].[DD5.1].[MVO].[LostFilm].torrent без регистрации
Золото ЗОЛОТАЯ РАЗДАЧА! СКАЧАННОЕ НЕ ЗАСЧИТЫВАЕТСЯ! Золото
Дата: Зарегистрирован   [ Тип: внутренний ] Как тут cкачать?
MAGNET ссылка
MAGNET ссылка


Скачать .torrent

40 KB

Статус: проверено DHT
Скачан: торрент - 455 раз, раздача полностью - 505 раз
Размер: 14,02 GB
Оценка:  5 (Голосов: 1)
Поблагодарили: 6
Поделиться ссылкой на эту раздачу с друзьями:
В контактеFacebookОдноклассникиTwitterLivejournalМой МирLiveinternet
 

 

toohumandani

[] 

дайте скорость плиз-чуть-чуть не докачал
 
Показать сообщения:    


Вы не можете начинать темы
Вы не можете отвечать на сообщения
Вы не можете редактировать свои сообщения
Вы не можете удалять свои сообщения
Вы не можете голосовать в опросах
Вы не можете прикреплять файлы к сообщениям
Вы можете скачивать файлы