Loading...
Error

Скачать Перевозчик / Transporter: The Series (сезон 01) (Брэд Тернер, Энди Микита, Т.Дж. Скотт) [2012, боевик, экшн, драма, криминал, BDRip-AVC] [MVO (Baibako)] торрент без регистрации

 
Статистика раздачи
Размер:  7,31 GB   |    Скачан:  220 раз
Сидов:  1  [  0 KB/s  ]  
 
Автор Сообщение

МихаНЕзатор

[] 

Название: Перевозчик
Оригинальное название: Transporter: The Series
Год выпуска: 2012
Страна: Канада, Франция, США, Германия
Жанр: боевик, экшн, драма, криминал
Продолжительность: 01 х ~ 00:45:00
Перевод: Профессиональный (многоголосый, закадровый) - Baibako
Субтитры: Нет
Режиссер: Брэд Тернер, Энди Микита, Т.Дж. Скотт
Сценарий: Люк Бессон, Роберт Марк Кэмен, Джозеф Маллози

В ролях: Крис Вэнс,Андреа Ошварт, Дэльфина Шанеак, Чарли Хюбнер, Франсуа Берлеан, Жан-Поль Мано, Джулиан Ричингс, Джейк Майклс, Джош Блэкер, Ной Кэппи

Описание: Перевозчик экшн-телесериал по мотивам одноимённой серии фильмов Люка Бессона. В центре сюжета бывший сотрудник Сил специального назначения Фрэнк Мартин, ныне перевозчик разных грузов. Он не задает лишних вопросов и всегда соблюдает чёткие правила: "Никогда не изменяй условия сделки", "Никаких имён", "Никогда не открывать груз". Его точность вождения и боевые навыки позволяют ему выжить в самых опасных ситуациях на протяжении всей миссии.

Релиз от:

Качество: BDRip
Формат: mp4
Видео кодек: AVC
Аудио кодек: AAC
Видео: AVC, 1536 Кбит/сек, 720x400, 25 000 кадров/сек
Аудио rus: 48,0 КГц, 2 канала, 192 Кбит/сек
Аудио eng: 48,0 КГц, 2 канала, 192 Кбит/сек

09.03.2013 г. торент обновлён, добавлена 12 серия!

Перевод: Дарья Омельяненко
Озвучка: Руслан Иванов, Елена Григорьева, Татьяна Оболевич и Владимир Курдов.
Монтаж: Игорь Лихо
Обложка: Татьяна Saavick

01 Дочь генерала / The General's Daughter
02. Отцовская любовь / Harvest (Vaterliebe)
03. Подмена / Switch (Echt Falsch)
04. Запасной план / Harvest
05. Расплата
06. Троянская лошадиная сила
07. Акулы
08. Алмазы в крови (Горячий лёд)
09. Город любви / City of Love
10. Шерше ля фам / Cherchez La Femme
11. Двенадцать часов
12. Рука помощи
Формат : MPEG-4
Профиль формата : Base Media
Идентификатор кодека : isom
Размер файла : 628 Мбайт
Продолжительность : 45 м.
Общий поток : 1924 Кбит/сек
Дата кодирования : UTC 2012-12-25 00:01:12
Дата пометки : UTC 2012-12-25 00:01:12

Видео
Идентификатор : 1
Формат : AVC
Формат/Информация : Advanced Video Codec
Профиль формата : Baseline@L3.0
Параметр CABAC формата : Нет
Параметр ReFrames формата : 3 кадра
Идентификатор кодека : avc1
Идентификатор кодека/Информация : Advanced Video Coding
Продолжительность : 45 м.
Вид битрейта : Переменный
Битрейт : 1536 Кбит/сек
Максимальный битрейт : 10000 Кбит/сек
Ширина : 720 пикс.
Высота : 400 пикс.
Соотношение сторон : 16:9
Режим частоты кадров : Постоянный
Частота кадров : 25,000 кадр/сек
Цветовое пространство : YUV
Подвыборка цветности : 4:2:0
Битовая глубина : 8 бит
Тип развёртки : Прогрессивная
Бит/(Пиксели*Кадры) : 0.213
Размер потока : 501 Мбайт (80%)
Заголовок : g-transporter s01e01-1080p
Библиотека кодирования : x264 core 125 r2208 d9d2288
Настройки программы : cabac=0 / ref=3 / deblock=1:0:0 / analyse=0x1:0x111 / me=hex / subme=7 / psy=1 / psy_rd=1.00:0.00 / mixed_ref=1 / me_range=16 / chroma_me=1 / trellis=1 / 8x8dct=0 / cqm=0 / deadzone=21,11 / fast_pskip=1 / chroma_qp_offset=-2 / threads=6 / lookahead_threads=1 / sliced_threads=0 / nr=0 / decimate=1 / interlaced=0 / bluray_compat=0 / constrained_intra=0 / bframes=0 / weightp=0 / keyint=250 / keyint_min=25 / scenecut=40 / intra_refresh=0 / rc_lookahead=40 / rc=2pass / mbtree=1 / bitrate=1536 / ratetol=1.0 / qcomp=0.60 / qpmin=0 / qpmax=69 / qpstep=4 / cplxblur=20.0 / qblur=0.5 / vbv_maxrate=10000 / vbv_bufsize=10000 / nal_hrd=vbr / ip_ratio=1.40 / aq=1:1.00
Дата кодирования : UTC 2012-12-24 22:29:26
Дата пометки : UTC 2012-12-25 00:02:18

Аудио #1
Идентификатор : 2
Формат : AAC
Формат/Информация : Advanced Audio Codec
Профиль формата : LC
Идентификатор кодека : 40
Продолжительность : 45 м.
Вид битрейта : Переменный
Битрейт : 192 Кбит/сек
Максимальный битрейт : 200 Кбит/сек
Каналы : 2 канала
Расположение каналов : Front: L R
Частота : 48,0 КГц
Метод сжатия : С потерями
Размер потока : 62,7 Мбайт (10%)
Язык : Russian
Дата кодирования : UTC 2012-12-25 00:02:13
Дата пометки : UTC 2012-12-25 00:02:18

Аудио #2
Идентификатор : 3
Формат : AAC
Формат/Информация : Advanced Audio Codec
Профиль формата : LC
Идентификатор кодека : 40
Продолжительность : 45 м.
Вид битрейта : Переменный
Битрейт : 192 Кбит/сек
Максимальный битрейт : 200 Кбит/сек
Каналы : 2 канала
Расположение каналов : Front: L R
Частота : 48,0 КГц
Метод сжатия : С потерями
Размер потока : 62,7 Мбайт (10%)
Язык : English
Дата кодирования : UTC 2012-12-25 00:02:16
Дата пометки : UTC 2012-12-25 00:02:18



Скачать Перевозчик.Transporter.The.Series.(сезон.01).(Брэд.Тернер.Энди.Микита.Т.Дж.Скотт).[2012.боевик.экшн.драма.криминал.BDRip-AVC].[MVO.(Baibako)].torrent без регистрации
Золото ЗОЛОТАЯ РАЗДАЧА! СКАЧАННОЕ НЕ ЗАСЧИТЫВАЕТСЯ! Золото
Дата: Зарегистрирован   [ Тип: внутренний ] Как тут cкачать?
MAGNET ссылка
MAGNET ссылка


Скачать .torrent

38 KB

Статус: проверено DHT
Скачан: торрент - 220 раз, раздача полностью - 12 раз
Размер: 7,31 GB
Оценка:  5 (Голосов: 1)
Поблагодарили: 5
Поделиться ссылкой на эту раздачу с друзьями:
В контактеFacebookОдноклассникиTwitterLivejournalМой МирLiveinternet
 

 
Показать сообщения:    


Вы не можете начинать темы
Вы не можете отвечать на сообщения
Вы не можете редактировать свои сообщения
Вы не можете удалять свои сообщения
Вы не можете голосовать в опросах
Вы не можете прикреплять файлы к сообщениям
Вы можете скачивать файлы