Loading...
Error

Скачать Перевозчик / Transporter: The Series (сезон 01) (Брэд Тернер, Энди Микита, Т.Дж. Скотт) [2012, боевик, экшн, драма, криминал, BDRip] [1080p] [MVO (Baibako)] торрент без регистрации

 
Статистика раздачи
Размер:  34,06 GB   |    Скачан:  234 раза
Сидов:  1  [  0 KB/s  ]  
 
Автор Сообщение

МихаНЕзатор

[] 

Название: Перевозчик
Оригинальное название: Transporter: The Series
Год выпуска: 2012
Страна: Канада, Франция, США, Германия
Жанр: боевик, экшн, драма, криминал
Продолжительность: 01 х ~ 00:45:00
Перевод: Профессиональный (многоголосый, закадровый) - Baibako
Субтитры: Нет
Режиссер: Брэд Тернер, Энди Микита, Т.Дж. Скотт
Сценарий: Люк Бессон, Роберт Марк Кэмен, Джозеф Маллози

В ролях: Крис Вэнс,Андреа Ошварт, Дэльфина Шанеак, Чарли Хюбнер, Франсуа Берлеан, Жан-Поль Мано, Джулиан Ричингс, Джейк Майклс, Джош Блэкер, Ной Кэппи

Описание: Перевозчик экшн-телесериал по мотивам одноимённой серии фильмов Люка Бессона. В центре сюжета бывший сотрудник Сил специального назначения Фрэнк Мартин, ныне перевозчик разных грузов. Он не задает лишних вопросов и всегда соблюдает чёткие правила: "Никогда не изменяй условия сделки", "Никаких имён", "Никогда не открывать груз". Его точность вождения и боевые навыки позволяют ему выжить в самых опасных ситуациях на протяжении всей миссии.

Качество: BDRip 1080p
Формат: MKV
Видео кодек: AVC
Аудио кодек: AC3
Видео: MPEG-4 AVC, ~ 6700 Кбит/с, 1920x1080
Аудио rus: AC3, 6 ch, 384 Кбит/с
Аудио eng: AC3, 6 ch, 384 Кбит/с

Релиз от:

09.03.2013 г. торент обновлён, добавлена 12 серия!

01. Дочь генерала / The General's Daughter
02. Harvest (Vaterliebe) / Отцовская любовь
03. Switch (Echt Falsch) / Подмена
04. Запасной план / Harvest
05. Расплата
06. Троянская лошадиная сила
07. Акулы
08. Алмазы в крови (Горячий лёд)
09. Город любви / City of Love
10. Шерше ля фам / Cherchez La Femme
11. Двенадцать часов / 12 Hours
12. Подай руку помощи / Give the Guy a Hand

Перевод: Дарья Омельяненко
Озвучка: Руслан Иванов, Елена Григорьева, Татьяна Оболевич и Владимир Курдов.
Монтаж: Игорь Лихо
Обложка: Татьяна Saavick
Complete name : I:Transporter.The.Series.s01e01.HD1080p.BluRay.Rus.Eng.BaibaKo.tv.mkv
Format : Matroska
File size : 2.80 GiB
Duration : 45mn 38s
Overall bit rate : 8 773 Kbps
Movie name : BaibaKo.tv presents - Перевозчик 1x01 Дочь генерала
Encoded date : UTC 2012-12-24 23:01:26
Writing application : mkvmerge v5.8.0 ('No Sleep / Pillow') built on Sep 2 2012 15:37:04
Writing library : libebml v1.2.3 + libmatroska v1.3.0

Video
ID : 1
Format : AVC
Format/Info : Advanced Video Codec
Format profile : High@L4.1
Format settings, CABAC : Yes
Format settings, ReFrames : 4 frames
Codec ID : V_MPEG4/ISO/AVC
Duration : 45mn 38s
Bit rate : 6 704 Kbps
Width : 1 920 pixels
Height : 1 080 pixels
Display aspect ratio : 16:9
Frame rate : 25.000 fps
Color space : YUV
Chroma subsampling : 4:2:0
Bit depth : 8 bits
Scan type : Progressive
Bits/(Pixel*Frame) : 0.129
Stream size : 2.14 GiB (76%)
Writing library : x264 core 129 r2230 1cffe9f
Encoding settings : cabac=1 / ref=4 / deblock=1:-3:-3 / analyse=0x3:0x133 / me=umh / subme=7 / psy=1 / psy_rd=1.00:0.00 / mixed_ref=1 / me_range=16 / chroma_me=1 / trellis=1 / 8x8dct=1 / cqm=0 / deadzone=21,11 / fast_pskip=0 / chroma_qp_offset=-1 / threads=12 / lookahead_threads=2 / sliced_threads=0 / nr=0 / decimate=1 / interlaced=0 / bluray_compat=0 / constrained_intra=0 / bframes=3 / b_pyramid=2 / b_adapt=1 / b_bias=0 / direct=3 / weightb=1 / open_gop=0 / weightp=2 / keyint=250 / keyint_min=25 / scenecut=40 / intra_refresh=0 / rc_lookahead=40 / rc=crf / mbtree=1 / crf=20.0 / qcomp=0.60 / qpmin=10 / qpmax=51 / qpstep=4 / ip_ratio=1.40 / aq=1:1.00

Audio #1
ID : 2
Format : AC-3
Format/Info : Audio Coding 3
Mode extension : CM (complete main)
Codec ID : A_AC3
Duration : 45mn 38s
Bit rate mode : Constant
Bit rate : 384 Kbps
Channel(s) : 6 channels
Channel positions : Front: L C R, Side: L R, LFE
Sampling rate : 48.0 KHz
Bit depth : 16 bits
Compression mode : Lossy
Stream size : 125 MiB (4%)
Title : Rus BaibaKo.tv DD5.1
Language : Russian

Audio #2
ID : 3
Format : DTS
Format/Info : Digital Theater Systems
Codec ID : A_DTS
Duration : 45mn 38s
Bit rate mode : Constant
Bit rate : 1 510 Kbps
Channel(s) : 6 channels
Channel positions : Front: L C R, Side: L R, LFE
Sampling rate : 48.0 KHz
Bit depth : 24 bits
Compression mode : Lossy
Stream size : 493 MiB (17%)
Title : Eng
Language : English



Скачать Перевозчик.Transporter.The.Series.(сезон.01).(Брэд.Тернер.Энди.Микита.Т.Дж.Скотт).[2012.боевик.экшн.драма.криминал.BDRip].[1080p].[MVO.(Baibako)].torrent без регистрации
Золото ЗОЛОТАЯ РАЗДАЧА! СКАЧАННОЕ НЕ ЗАСЧИТЫВАЕТСЯ! Золото
Дата: Зарегистрирован   [ Тип: внутренний ] Как тут cкачать?
MAGNET ссылка
MAGNET ссылка


Скачать .torrent

45 KB

Статус: проверено DHT
Скачан: торрент - 234 раз, раздача полностью - 3 раз
Размер: 34,06 GB
Оценка:  4,8 (Голосов: 4)
Поблагодарили: 5
Поделиться ссылкой на эту раздачу с друзьями:
В контактеFacebookОдноклассникиTwitterLivejournalМой МирLiveinternet
 

 
Показать сообщения:    


Вы не можете начинать темы
Вы не можете отвечать на сообщения
Вы не можете редактировать свои сообщения
Вы не можете удалять свои сообщения
Вы не можете голосовать в опросах
Вы не можете прикреплять файлы к сообщениям
Вы можете скачивать файлы