Loading...
Error

Скачать Пьяный мастер / Drunken Master / Jui kuen (Юэнь Ву-Пин) [1978, боевик, комедия, HDTVRip] [MVO] торрент без регистрации

 
Статистика раздачи
Размер:  746 MB   |    Скачан:  162 раза
Сидов:  1  [  0 KB/s  ]  
 
Автор Сообщение

Marsianka

[] 

Информация о фильме
Название: Пьяный мастер
Оригинальное название: Drunken Master / Jui kuen
Год выхода: 1978
Жанр: боевик, комедия
Режиссер: Юэнь Ву-Пин
В ролях: Джеки Чан, Сиу Тиен Юэнь, Янг Ли Хванг, Чен Тиен Лунг, Чинг Чианг, Джинг Мэн Фанг, Хсю Хсиа, Чао Лин, Линда Лин, Йинг Ли

О фильме:
Молодой Вонг Фей-Хун, будущий народный герой Китая, защитник обездоленных и обиженных, в молодости был весьма строптив и дерзок. Настолько, что отец отослал неуправляемого сына к дяде, известному мастеру кунг-фу и большому эксперту в двух вещах: распитии крепких спиртных напитков и выбивании дури из самонадеянных юнцов. Неудивительно, что герой сбегает от дяди-садиста при первой же возможности.
Увы, тут же побитый и униженный бандитом-профи, он возвращается назад к Пьяному Мастеру. Придется ему, скрипя зубами, терпеть иезуитские методы воспитания дяди, дабы потом, постигнув все тонкости боевых искусств, отомстить своему обидчику, который, к тому же, собирается убить его отца



Страна: Гонконг
Продолжительность: 01:46:35
Перевод: Профессиональный (многоголосый закадровый)

Файл
Кодек: XviD
Качество: HDTVRip
Видео: 672x288, 25 fps, 841 Kbps, 0.174 Bits/Pixel
Звук: MP3, 48 KHz, 128 Kbps, 2 channels

Семпл
General
Complete name : D:P'janyj.master.1978.HDTVRip.XviD.745mb.avi
Format : AVI
Format/Info : Audio Video Interleave
File size : 746 MiB
Duration : 1h 46mn
Overall bit rate : 978 Kbps
Writing application : VirtualDubMod 1.5.10.2 (build 2540/release)
Writing library : VirtualDubMod build 2540/release
Video
ID : 0
Format : MPEG-4 Visual
Format profile : Advanced Simple@L5
Format settings, BVOP : 2
Format settings, QPel : No
Format settings, GMC : No warppoints
Format settings, Matrix : Default (H.263)
Muxing mode : Packed bitstream
Codec ID : XVID
Codec ID/Hint : XviD
Duration : 1h 46mn
Bit rate : 841 Kbps
Width : 672 pixels
Height : 288 pixels
Display aspect ratio : 2.35:1
Frame rate : 25.000 fps
Color space : YUV
Chroma subsampling : 4:2:0
Bit depth : 8 bits
Scan type : Progressive
Compression mode : Lossy
Bits/(Pixel*Frame) : 0.174
Stream size : 641 MiB (86%)
Writing library : XviD 1.2.1 (UTC 2008-12-04)
Audio
ID : 1
Format : MPEG Audio
Format version : Version 1
Format profile : Layer 3
Codec ID : 55
Codec ID/Hint : MP3
Duration : 1h 46mn
Bit rate mode : Constant
Bit rate : 128 Kbps
Channel(s) : 2 channels
Sampling rate : 48.0 KHz
Compression mode : Lossy
Stream size : 97.6 MiB (13%)
Alignment : Aligned on interleaves
Interleave, duration : 40 ms (1.00 video frame)
Interleave, preload duration : 504 ms
Writing library : LAME3.98r
Encoding settings : -m s -V 4 -q 2 -lowpass 17 -b 128











Скачать Пьяный.мастер.Drunken.Master.Jui.kuen.(Юэнь.Ву-Пин).[1978.боевик.комедия.HDTVRip].[MVO].torrent без регистрации
Золото ЗОЛОТАЯ РАЗДАЧА! СКАЧАННОЕ НЕ ЗАСЧИТЫВАЕТСЯ! Золото
Дата: Зарегистрирован   [ Тип: внутренний ] Как тут cкачать?
MAGNET ссылка
MAGNET ссылка


Скачать .torrent

15 KB

Статус: проверено DHT
Скачан: торрент - 162 раз, раздача полностью - 33 раз
Размер: 746 MB
Оценка:  - (Голосов: 0)
Поблагодарили: 3
Поделиться ссылкой на эту раздачу с друзьями:
В контактеFacebookОдноклассникиTwitterLivejournalМой МирLiveinternet
 

 
Показать сообщения:    


Вы не можете начинать темы
Вы не можете отвечать на сообщения
Вы не можете редактировать свои сообщения
Вы не можете удалять свои сообщения
Вы не можете голосовать в опросах
Вы не можете прикреплять файлы к сообщениям
Вы можете скачивать файлы