Loading...
Error

/ The Sopranos ( 1- ) ( , , ) [1999, , , BDRip] [720p] [AVO] (. ) + [Original ]

 
40,36 GB   |    :  392
1  [  0 KB/s  ]  
 

leon030982

[] 

( ) / The Sopranos
1

: 1999
:
: ,
: ~00:55:00

: ( ) - .

:

: , ,

: , , - , , , , , , ,

: : - , - , - . .
: , - , - . , , - , ?


: http://multi-up.com/806891
: BDRip [720p]
: MKV
: H.264
: DTS
: 1280x720 at 23.976 fps, x264@L4.1, 2pass, ~5500 kbps avg, 0.25 bit/pixel
#1: Russian: 48 kHz/16-bit, DTS, 3/2 (L,C,R,l,r) + LFE ch, ~1536.00 kbps avg | , . |
#2: English: 48 kHz/16-bit, DTS, 3/2 (L,C,R,l,r) + LFE ch, ~1536.00 kbps avg
: English, English (SDH)
!!! ! . "" HDCLUB rutracker.org. : HDCLUB - Loki1982, HPotter, denismgn1987, Pro_Rock_, Slimka, vwzt, markinscor, GKillah, ochkarik1, DaviD18_85, shifu, Witcher20, olegovich. RUTRACKER - oleg-k, mogvay, bandy213, bilbo_bagginz, tsr, Rosamar, Netrabote, -RaMiS-, Gungrave 123, zeleniydzhan, Stalk, anton966

:

General
Complete name : The.Sopranos.S01E01.Pilot.720p.BluRay.Rus.2xEng.HDCLUB.mkv
Format : Matroska
Format version : Version 4 / Version 2
File size : 3.65 GiB
Duration : 1h 0mn
Overall bit rate : 8 715 Kbps
Movie name : The Sopranos [Season 1] (1999) - Release for HDCLUB
Encoded date : UTC 2010-02-22 21:41:31
Writing application : mkvmerge v5.9.0 ('On The Loose') built on Dec 9 2012 15:37:01
Writing library : libebml v1.3.0 + libmatroska v1.4.0
Video
ID : 1
Format : AVC
Format/Info : Advanced Video Codec
Format profile : High@L4.1
Format settings, CABAC : Yes
Format settings, ReFrames : 9 frames
Codec ID : V_MPEG4/ISO/AVC
Duration : 1h 0mn
Bit rate : 5 500 Kbps
Width : 1 280 pixels
Height : 720 pixels
Display aspect ratio : 16:9
Frame rate mode : Constant
Frame rate : 23.976 fps
Color space : YUV
Chroma subsampling : 4:2:0
Bit depth : 8 bits
Scan type : Progressive
Bits/(Pixel*Frame) : 0.249
Stream size : 2.24 GiB (61%)
Title : The Sopranos 1x01: Pilot - Release for HDCLUB
Writing library : x264 core 80 r1376M 3feaec2
Encoding settings : cabac=1 / ref=9 / deblock=1:-3:-3 / analyse=0x3:0x133 / me=umh / subme=10 / psy=1 / psy_rd=1.0:0.0 / mixed_ref=1 / me_range=24 / chroma_me=1 / trellis=2 / 8x8dct=1 / cqm=0 / deadzone=21,11 / fast_pskip=0 / chroma_qp_offset=-2 / threads=6 / sliced_threads=0 / nr=0 / decimate=0 / mbaff=0 / constrained_intra=0 / bframes=6 / b_pyramid=0 / b_adapt=2 / b_bias=0 / direct=3 / wpredb=1 / wpredp=2 / keyint=250 / keyint_min=25 / scenecut=40 / rc_lookahead=60 / rc=2pass / mbtree=1 / bitrate=5500 / ratetol=1.0 / qcomp=0.80 / qpmin=10 / qpmax=51 / qpstep=4 / cplxblur=20.0 / qblur=0.5 / ip_ratio=1.40 / aq=1:0.75
Language : English
Default : Yes
Forced : No
Audio #1
ID : 2
Format : DTS
Format/Info : Digital Theater Systems
Mode : 16
Format settings, Endianness : Big
Codec ID : A_DTS
Duration : 1h 0mn
Bit rate mode : Constant
Bit rate : 1 509 Kbps
Channel(s) : 6 channels
Channel positions : Front: L C R, Side: L R, LFE
Sampling rate : 48.0 KHz
Bit depth : 16 bits
Compression mode : Lossy
Stream size : 648 MiB (17%)
Title : .
Language : Russian
Default : Yes
Forced : No
Audio #2
ID : 3
Format : DTS
Format/Info : Digital Theater Systems
Mode : 16
Format settings, Endianness : Big
Codec ID : A_DTS
Duration : 1h 0mn
Bit rate mode : Constant
Bit rate : 1 509 Kbps
Channel(s) : 6 channels
Channel positions : Front: L C R, Side: L R, LFE
Sampling rate : 48.0 KHz
Bit depth : 16 bits
Compression mode : Lossy
Stream size : 648 MiB (17%)
Language : English
Default : No
Forced : No
Audio #3
ID : 4
Format : AC-3
Format/Info : Audio Coding 3
Mode extension : CM (complete main)
Format settings, Endianness : Big
Codec ID : A_AC3
Duration : 1h 0mn
Bit rate mode : Constant
Bit rate : 192 Kbps
Channel(s) : 2 channels
Channel positions : Front: L R
Sampling rate : 48.0 KHz
Bit depth : 16 bits
Compression mode : Lossy
Stream size : 82.4 MiB (2%)
Title : Commentary
Language : English
Default : No
Forced : No
Text #1
ID : 5
Format : UTF-8
Codec ID : S_TEXT/UTF8
Codec ID/Info : UTF-8 Plain Text
Language : English
Default : No
Forced : No
Text #2
ID : 6
Format : UTF-8
Codec ID : S_TEXT/UTF8
Codec ID/Info : UTF-8 Plain Text
Title : SDH
Language : English
Default : No
Forced : No
[align=center]
! , . , :
(1) ,
(2) ( ),
(3) , .
() ( - ), . , !
, , . , , .



..The.Sopranos.(.1-.).(......).[1999...BDRip].[720p].[AVO].(.).+.[Original.].torrent
  ! ! 
:   [ : ] c?
MAGNET
MAGNET


.torrent

103 KB

: DHT
: - 392 , - 17
: 40,36 GB
5 (: 2)
: 4
:
 FacebookTwitterLivejournal Liveinternet
 

 

leon030982

[] 

az
 

leon030982

[] 

10- az
 

leon030982

[] 

11- az
 

leon030982

[] 

az
 
: