Loading...
Error

Скачать Всё могут короли (Александр Черняев) [2008, мелодрама, комедия, DVDRip] [Лицензия R5] торрент без регистрации

 
Статистика раздачи
Размер:  745 MB   |    Скачан:  112 раз
Сидов:  1  [  0 KB/s  ]  
 
Автор Сообщение

МихаНЕзатор

[] 

«Весенняя охота на принцесс»
Страна: Россия
Жанр: мелодрама, комедия
Год выпуска: 2007
Продолжительность: 01:38:40

Перевод: не требуется
Оригинальная аудиодорожка: русский
Cубтитры: нет

Режиссер: Александр Черняев

В ролях: Гоша Куценко, Оскар Кучера, Елена Полякова, Нина Усатова, Александр Тютин, Татьяна Васильева, Жерар Депардье, Валерий Соловьев, Сергей Рост, Кирилл Жандаров...

Описание: Каждому из нас хоть на денек хотелось стать кем-то другим, жить и чувствовать по-другому. Влекомая красотами ночного Петербурга, оставив служанок и гувернантку в глубине засыпающего дворца, французская принцесса выбирается из окна на внеплановую прогулку.
Счастливчик Макс был немало удивлен, обнаружив в своей случайной знакомой полное сходство с недавно прибывшей в Россию принцессой Марией. И, не желая упускать «крупную рыбу», становится ее спутником.
Казалось бы, уже набралось немало событий, обещающих сенсационный материал о невероятных приключениях иностранки, сдобренный прекрасными фотографиями Гарика чего стоит только «первая сигарета принцессы». Но, самое слабое звено, человеческое сердце, черствого журналиста дрогнуло перед обаянием и почти что ребяческой наивностью, с которой наслаждалась городом и новой собой вчерашняя принцесса. Похоже, профессиональные цели сменятся надеждами на взаимность. Как удержать любимую, которая неумолимо скоро должна вернуться к любимому папе, во Францию?

Исходник: DVD5 R5
Тип релиза: DVDRip
Контейнер: AVI

Видео: 720x304 (2.35:1), 25 fps, XviD ~ 918 kbps avg, 0.168 bit/pixel
Аудио: 48 kHz, МР3 , 2 ch, 128.00 kbps


Общее
Полное имя : Vse.mogut.koroli.2008.O.DVDRip.745MB_[Youtracker]_by_avproh.avi
Формат : AVI
Формат/Информация : Audio Video Interleave
Размер файла : 745 Мбайт
Продолжительность : 1 ч. 38 м.
Общий поток : 1056 Кбит/сек
Программа кодирования : VirtualDubMod 1.5.10.3 | www.virtualdub-fr.org || (build 2550/release)
Библиотека кодирования : VirtualDubMod build 2550/release

Видео
Идентификатор : 0
Формат : MPEG-4 Visual
Профиль формата : Advanced Simple@L5
Параметр BVOP формата : 1
Параметр QPel формата : Нет
Параметр GMC формата : Без точки перехода
Параметр матрицы формата : Выборочная
Идентификатор кодека : XVID
Идентификатор кодека/Подсказка : XviD
Продолжительность : 1 ч. 38 м.
Битрейт : 918 Кбит/сек
Ширина : 720 пикселей
Высота : 304 пикселя
Соотношение сторон : 2,35:1
Частота кадров : 25,000 кадров/сек
Цветовое пространство : YUV
Субдискретизация насыщенности : 4:2:0
Битовая глубина : 8 бит
Тип развёртки : Прогрессивная
Метод сжатия : С потерями
Бит/(Пиксели*Кадры) : 0.168
Размер потока : 648 Мбайт (87%)
Библиотека кодирования : XviD 65

Аудио
Идентификатор : 1
Формат : MPEG Audio
Версия формата : Version 1
Профиль формата : Layer 3
Идентификатор кодека : 55
Идентификатор кодека/Подсказка : MP3
Продолжительность : 1 ч. 38 м.
Вид битрейта : Постоянный
Битрейт : 128 Кбит/сек
Каналы : 2 канала
Частота : 48,0 КГц
Метод сжатия : С потерями
Размер потока : 90,3 Мбайт (12%)
Выравнивание : Соединение по промежуткам
Продолжительность промежутка : 40 мс. (1,00 видеокадр)
Время предзагрузки промежутка : 504 мс.



Скачать Всё.могут.короли.(Александр.Черняев).[2008.мелодрама.комедия.DVDRip].[Лицензия.R5].torrent без регистрации
Золото ЗОЛОТАЯ РАЗДАЧА! СКАЧАННОЕ НЕ ЗАСЧИТЫВАЕТСЯ! Золото
Дата: Зарегистрирован   [ Тип: внутренний ] Как тут cкачать?
MAGNET ссылка
MAGNET ссылка


Скачать .torrent

15 KB

Статус: проверено DHT
Скачан: торрент - 112 раз, раздача полностью - 34 раз
Размер: 745 MB
Оценка:  - (Голосов: 0)
Поблагодарили: 2
Поделиться ссылкой на эту раздачу с друзьями:
В контактеFacebookОдноклассникиTwitterLivejournalМой МирLiveinternet
 

 
Показать сообщения:    


Вы не можете начинать темы
Вы не можете отвечать на сообщения
Вы не можете редактировать свои сообщения
Вы не можете удалять свои сообщения
Вы не можете голосовать в опросах
Вы не можете прикреплять файлы к сообщениям
Вы можете скачивать файлы