Loading...
Error

Скачать Антонина обернулась (Григорий Никулин) [2007, драма, DVDRip] [Лицензия R5] торрент без регистрации

 
Статистика раздачи
Размер:  745 MB   |    Скачан:  108 раз

Полного источника не было: 28 минут

 
Автор Сообщение

МихаНЕзатор

[] 

Страна: Россия
Жанр: драма
Год выпуска: 2007
Продолжительность: 01:40:08

Перевод: не требуется
Оригинальная аудиодорожка: русский
Cубтитры: нет

Режиссер: Григорий Никулин

В ролях: Сергей Дрейден, Александр Баргман, Юрий Шевчук, Татьяна Ткач, Вячеслав Захаров, Марина Солопченко, Евгения Игумнова, Лариса Розыграева, Эра Зиганшина, Николай Микенин

Описание: Главная героиня этой Антонина жена, мать, хозяйка в доме, просыпается после необычайно яркого сна и понимает, что всю свою жизнь прожила не так, как хотела. Рядом чужие люди, которых она не любит и вообще, все это была НЕ ЕЕ жизнь.
Осознает она это так ясно, что даже на похоронах собственного мужа Антонина не плачет, не убивается и, кажется, что эта смерть вообще ее не касается. И это несмотря на то, что с мужем прожита долгая и благополучная жизнь

Исходник: DVD5 R5
Тип релиза: DVDRip
Контейнер: AVI

Видео: 624x368 (1.696:1), 25 fps, XviD ~ 903 kbps avg, 0.157 bit/pixel
Аудио: 48 kHz, MP3 , 2 ch, 128.00 kbps


Общее
Полное имя : Antonina.obernulas.2007.O.DVDRip.745MB_[Youtracker]_by_avproh.avi
Формат : AVI
Формат/Информация : Audio Video Interleave
Размер файла : 745 Мбайт
Продолжительность : 1 ч. 40 м.
Общий поток : 1040 Кбит/сек
Программа кодирования : VirtualDubMod 1.5.10.3 | www.virtualdub-fr.org || (build 2550/release)
Библиотека кодирования : VirtualDubMod build 2550/release

Видео
Идентификатор : 0
Формат : MPEG-4 Visual
Профиль формата : Advanced Simple@L5
Параметр BVOP формата : 1
Параметр QPel формата : Нет
Параметр GMC формата : Без точки перехода
Параметр матрицы формата : Выборочная
Идентификатор кодека : XVID
Идентификатор кодека/Подсказка : XviD
Продолжительность : 1 ч. 40 м.
Битрейт : 903 Кбит/сек
Ширина : 624 пикселя
Высота : 368 пикселей
Соотношение сторон : 1,696
Частота кадров : 25,000 кадров/сек
Цветовое пространство : YUV
Субдискретизация насыщенности : 4:2:0
Битовая глубина : 8 бит
Тип развёртки : Прогрессивная
Метод сжатия : С потерями
Бит/(Пиксели*Кадры) : 0.157
Размер потока : 647 Мбайт (87%)
Библиотека кодирования : XviD 65

Аудио
Идентификатор : 1
Формат : MPEG Audio
Версия формата : Version 1
Профиль формата : Layer 3
Идентификатор кодека : 55
Идентификатор кодека/Подсказка : MP3
Продолжительность : 1 ч. 40 м.
Вид битрейта : Постоянный
Битрейт : 128 Кбит/сек
Каналы : 2 канала
Частота : 48,0 КГц
Метод сжатия : С потерями
Размер потока : 91,7 Мбайт (12%)
Выравнивание : Соединение по промежуткам
Продолжительность промежутка : 40 мс. (1,00 видеокадр)
Время предзагрузки промежутка : 504 мс.



Скачать Антонина.обернулась.(Григорий.Никулин).[2007.драма.DVDRip].[Лицензия.R5].torrent без регистрации
Золото ЗОЛОТАЯ РАЗДАЧА! СКАЧАННОЕ НЕ ЗАСЧИТЫВАЕТСЯ! Золото
Дата: Зарегистрирован   [ Тип: внутренний ] Как тут cкачать?
MAGNET ссылка
MAGNET ссылка


Скачать .torrent

15 KB

Статус: проверено DHT
Скачан: торрент - 108 раз, раздача полностью - 1 раз
Размер: 745 MB
Оценка:  - (Голосов: 0)
Поблагодарили: 0
Поделиться ссылкой на эту раздачу с друзьями:
В контактеFacebookОдноклассникиTwitterLivejournalМой МирLiveinternet
 

 
Показать сообщения:    


Вы не можете начинать темы
Вы не можете отвечать на сообщения
Вы не можете редактировать свои сообщения
Вы не можете удалять свои сообщения
Вы не можете голосовать в опросах
Вы не можете прикреплять файлы к сообщениям
Вы можете скачивать файлы