Loading...
Error

Скачать Интенсивная терапия / Critical Care (Сидни Люмет) [1997, Драма, комедия, DVDRip] [AVO] (Юрий Сербин) + [Original Eng] торрент без регистрации

 
Статистика раздачи
Размер:  1,41 GB   |    Скачан:  123 раза
Сидов:  1  [  0 KB/s  ]  
 
Автор Сообщение

leon030982

[] 

Интенсивная терапия / Critical Care
«At Memorial Hospital no one ever dies... Until their insurance runs out»
Страна: США , Австралия
Жанр: Драма, комедия
Год выпуска: 1997
Продолжительность: 01:46:38
Перевод: Авторский (одноголосый закадровый) [Юрий Сербин]
Cубтитры: нет
Оригинальная аудиодорожка: английская

Режиссер: Сидни Люмет / Sidney Lumet

В ролях: Джеймс Спейдер, Кира Сэджвик, Хелен Миррен, Энн Бэнкрофт, Альберт Брукс, Джеффри Райт, Марго Мартиндейл, Уоллес Шоун, Филлип Боско, Колм Фиор.

Описание: Вернер Эрнст - молодой и обаятельный врач. Его работа в отделении интенсивной терапии сводится к поддержанию жизни безнадежных коматозников и паралитиков, которым не светит возвращение к нормальному существованию. Однажды в отделение Эрнста в бессознательном состоянии поступает очень богатый старик.
Его огромное наследство после смерти перейдет к одной из двух дочерей. Младшая, сексапильная Фелиция, решает ускорить события и, соблазнив Эрнста, пытается вынудить его ускорить смерть отца. Вернер оказывается вовлеченным в рискованную и порочную игру, где на кону находятся человеческая жизнь и десять миллионов долларов.



За предоставление русской аудиодорожки огромное спасибо Fikaloid
За любезное разрешение использовать DVDRip - также огромное спасибо 25k

Качество видео: DVDRip
Формат видео: AVI
Видео: 704x400 (1.76:1), 23.976 fps, DivX Codec 5.x or 6.x ~1564 kbps avg, 0.23 bit/pixel
Аудио 1: 48 kHz, AC3 Dolby Digital, 2/0 (L,R) ch, ~192 kbps - русский
Аудио 2: 48 kHz, MPEG Layer 3, 2 ch, ~128.00 kbps avg - английский
General
Complete name : D:\Public\Critical.Care.1997.Rus.(Serbin)+Eng.avi
Format : AVI
Format/Info : Audio Video Interleave
File size : 1.41 GiB
Duration : 1h 46mn
Overall bit rate : 1 899 Kbps
Writing application : VirtualDubMod 1.5.10.2 (build 2542/release)
Writing library : VirtualDubMod build 2542/release
Video
ID : 0
Format : MPEG-4 Visual
Format profile : Simple@L1
Format settings, BVOP : No
Format settings, QPel : No
Format settings, GMC : No warppoints
Format settings, Matrix : Default (H.263)
Codec ID : DX50
Codec ID/Hint : DivX 5
Duration : 1h 46mn
Bit rate : 1 565 Kbps
Width : 704 pixels
Height : 400 pixels
Display aspect ratio : 16:9
Frame rate : 23.976 fps
Color space : YUV
Chroma subsampling : 4:2:0
Bit depth : 8 bits
Scan type : Progressive
Compression mode : Lossy
Bits/(Pixel*Frame) : 0.232
Stream size : 1.17 GiB (82%)
Writing library : Lavc52.0.0
Audio #1
ID : 1
Format : AC-3
Format/Info : Audio Coding 3
Mode extension : CM (complete main)
Codec ID : 2000
Duration : 1h 46mn
Bit rate mode : Constant
Bit rate : 192 Kbps
Channel(s) : 2 channels
Channel positions : Front: L R
Sampling rate : 48.0 KHz
Bit depth : 16 bits
Compression mode : Lossy
Stream size : 146 MiB (10%)
Alignment : Split accross interleaves
Interleave, duration : 42 ms (1.00 video frame)
Interleave, preload duration : 500 ms
Audio #2
ID : 2
Format : MPEG Audio
Format version : Version 1
Format profile : Layer 3
Mode : Joint stereo
Mode extension : MS Stereo
Codec ID : 55
Codec ID/Hint : MP3
Duration : 1h 46mn
Bit rate mode : Constant
Bit rate : 128 Kbps
Channel(s) : 2 channels
Sampling rate : 48.0 KHz
Compression mode : Lossy
Stream size : 97.6 MiB (7%)
Alignment : Split accross interleaves
Interleave, duration : 42 ms (1.00 video frame)
Interleave, preload duration : 500 ms



Скачать Интенсивная.терапия.Critical.Care.(Сидни.Люмет).[1997.Драма.комедия.DVDRip].[AVO].(Юрий.Сербин).+.[Original.Eng].torrent без регистрации
Золото ЗОЛОТАЯ РАЗДАЧА! СКАЧАННОЕ НЕ ЗАСЧИТЫВАЕТСЯ! Золото
Дата: Зарегистрирован   [ Тип: внутренний ] Как тут cкачать?
MAGNET ссылка
MAGNET ссылка


Скачать .torrent

15 KB

Статус: проверено DHT
Скачан: торрент - 123 раз, раздача полностью - 4 раз
Размер: 1,41 GB
Оценка:  - (Голосов: 0)
Поблагодарили: 2
Поделиться ссылкой на эту раздачу с друзьями:
В контактеFacebookОдноклассникиTwitterLivejournalМой МирLiveinternet
 

 
Показать сообщения:    


Вы не можете начинать темы
Вы не можете отвечать на сообщения
Вы не можете редактировать свои сообщения
Вы не можете удалять свои сообщения
Вы не можете голосовать в опросах
Вы не можете прикреплять файлы к сообщениям
Вы можете скачивать файлы