Loading...
Error

Скачать Битва в пустыне / The Objective (Дэниэл Мирик) [2008, ужасы, фантастика, триллер, HDRip] [MVO] торрент без регистрации

 
Статистика раздачи
Размер:  1,46 GB   |    Скачан:  150 раз
Сидов:  1  [  0 KB/s  ]  
 
Автор Сообщение

Marsianka

[] 

«Они не видели своего врага»
Год выпуска: 2008
Страна: США, Марокко
Жанр: ужасы, фантастика, триллер
Продолжительность: 01:30:01

Перевод: Профессиональный (многоголосый, закадровый)
Оригинальная аудиодорожка: нет
Субтитры: нет

Режиссер: Дэниэл Мирик / Daniel Myrick

В ролях: Йонас Болл, Мэттью Р. Андерсон, Джон Уэртас, Майкл С. Уильямс, Сэм Хантер, Джефф Прюэтт, Кенни Тейлор, Чемс-Эддин Зинун, Qzaibar Allal, Hammou Abaou...

Описание: Афганистан, ноябрь 2001. Два месяца спустя после нападений на всемирный торговый центр. Элитный отряд спецподразделения посылают в Афганскую пустыню, для того, чтобы они вступили в контакт с человеком, известным как «Мохаммед Абан». Однако вместо запланированной встречи, они столкнулись с чем-то неожиданным С таким, ко встрече к чему их не подготовило даже элитное обучение.

Исходник: BDRip 1080p
Тип релиза: HDRip
Контейнер: AVI

Видео: 720x400 (16:9), 23.976 fps, XviD ~ 1923 kbps avg, 0.279 bit/pixel
Аудио: 48 kHz, AC3, 6 ch, 384.00 kbps, русский

Раздача от:

Общее
Полное имя : Bitva.v.pustyne.2008.P.DVDRip_[Youtracker]_by_avproh.avi
Формат : AVI
Формат/Информация : Audio Video Interleave
Размер файла : 1,46 Гбайт
Продолжительность : 1 ч. 30 м.
Общий поток : 2317 Кбит/сек
Программа кодирования : VirtualDubMod 1.5.10.3 | www.virtualdub-fr.org || (build 2550/release)
Библиотека кодирования : VirtualDubMod build 2550/release

Видео
Идентификатор : 0
Формат : MPEG-4 Visual
Профиль формата : Advanced Simple@L5
Параметр BVOP формата : 1
Параметр QPel формата : Нет
Параметр GMC формата : Без точки перехода
Параметр матрицы формата : Выборочная
Идентификатор кодека : XVID
Идентификатор кодека/Подсказка : XviD
Продолжительность : 1 ч. 30 м.
Битрейт : 1923 Кбит/сек
Ширина : 720 пикселей
Высота : 400 пикселей
Соотношение сторон : 16:9
Частота кадров : 23,976 кадра/сек
Цветовое пространство : YUV
Субдискретизация насыщенности : 4:2:0
Битовая глубина : 8 бит
Тип развёртки : Прогрессивная
Метод сжатия : С потерями
Бит/(Пиксели*Кадры) : 0.279
Размер потока : 1,21 Гбайт (83%)
Библиотека кодирования : XviD 65

Аудио
Идентификатор : 1
Формат : AC-3
Формат/Информация : Audio Coding 3
Расширение режима : CM (complete main)
Параметр Endianness формата : Big
Идентификатор кодека : 2000
Продолжительность : 1 ч. 30 м.
Вид битрейта : Постоянный
Битрейт : 384 Кбит/сек
Каналы : 6 каналов
Расположение каналов : Front: L C R, Side: L R, LFE
Частота : 48,0 КГц
Битовая глубина : 16 бит
Метод сжатия : С потерями
Размер потока : 247 Мбайт (17%)
Выравнивание : Разделение по промежуткам
Продолжительность промежутка : 42 мс. (1,00 видеокадр)
Время предзагрузки промежутка : 500 мс.



Скачать Битва.в.пустыне.The.Objective.(Дэниэл.Мирик).[2008.ужасы.фантастика.триллер.HDRip].[MVO].torrent без регистрации
Золото ЗОЛОТАЯ РАЗДАЧА! СКАЧАННОЕ НЕ ЗАСЧИТЫВАЕТСЯ! Золото
Дата: Зарегистрирован   [ Тип: внутренний ] Как тут cкачать?
MAGNET ссылка
MAGNET ссылка


Скачать .torrent

15 KB

Статус: проверено DHT
Скачан: торрент - 150 раз, раздача полностью - 104 раз
Размер: 1,46 GB
Оценка:  - (Голосов: 0)
Поблагодарили: 3
Поделиться ссылкой на эту раздачу с друзьями:
В контактеFacebookОдноклассникиTwitterLivejournalМой МирLiveinternet
 

 
Показать сообщения:    


Вы не можете начинать темы
Вы не можете отвечать на сообщения
Вы не можете редактировать свои сообщения
Вы не можете удалять свои сообщения
Вы не можете голосовать в опросах
Вы не можете прикреплять файлы к сообщениям
Вы можете скачивать файлы